Search

Phamous 2018 x264 720p HD Hindi GOPISAHI


Format                         : Matroska
Format version                 : Version 4 / Version 2
File size                      : 680 MiB
Duration                       : 1 h 46 min
Overall bit rate               : 896 kb/s
Movie name                     : Phamous 2018 GOPISAHI

Video
Format                         : AVC
Format/Info                    : Advanced Video Codec
Codec ID                       : V_MPEG4/ISO/AVC
Duration                       : 1 h 46 min
Bit rate                       : 799 kb/s
Width                          : 1 280 pixels
Height                         : 534 pixels
Display aspect ratio           : 2.40:1
Frame rate mode                : Constant
Frame rate                     : 23.976 (24000/1001) FPS
Color space                    : YUV
Chroma subsampling             : 4:2:0
Bit depth                      : 8 bits
Scan type                      : Progressive
Bits/(Pixel*Frame)             : 0.049
Stream size                    : 605 MiB (89%)
Title                          : GOPISAHI
Writing library                : x264 core 155 r2901 7d0ff22
Language                       : Hindi

Audio
Format                         : AAC
Format/Info                    : Advanced Audio Codec
Duration                       : 1 h 46 min
Bit rate                       : 96.0 kb/s
Channel(s)                     : 2 channels
Channel positions              : Front: L R
Sampling rate                  : 48.0 kHz
Frame rate                     : 46.875 FPS (1024 SPF)
Compression mode               : Lossy
Delay relative to video        : -21 ms
Stream size                    : 72.8 MiB (11%)
Title                          : GOPISAHI
Language                       : Hindi



TORRENT

MAGNET

https://uploadfiles.pw/194c38b36ab69d4f

https://linkstaker.bid/drive/download.php?id=9f6474bf9c27776a4638

https://linksclub.biz/drive/download.php?id=f2b812dd98f75586971b

http://1upload.pw/Download.php?url=QVh5SHdxeXpoYXl6TnV3bzhya3JjdnBmTU9UZUNwRWtHWitWaGxheUxYS2o1UTFVM1VxNUwyYWZuU0lvei9YVQ==

https://www.oboom.com/MJCNDE48

https://megaup.net/hSnP/Phamous_2018_x264_720p_HD__Hindi_GOPISAHI.mkv

https://bdupload.info/9eerv0mt09t3

https://uptobox.com/aohinlso4i4k

https://uptostream.com/aohinlso4i4k

https://openload.co/f/F74_cCJLXh4/Phamous_2018_x264_720p_HD__Hindi_GOPISAHI.mkv.mp4

https://vidoza.net/rkjgeu9blzeh.html

http://www.filefactory.com/file/6zqpw8ezy9q1/

http://www.indishare.me/kxlmpff2rswf

https://cloudvideo.tv/dl?op=download_orig&id=1xj3qarh0c2w&mode=n&hash=60754-117-241-1535613967-d4de3eb156cfd6873072265ea8398470

 Phamous
(2018) on IMDb

Post a Comment

0 Comments