Search

Race 3 2018 x264 720p HD Esub Hindi GOPISAHI


Format                         : Matroska
Format version                 : Version 4 / Version 2
File size                      : 774 MiB
Duration                       : 2 h 35 min
Overall bit rate               : 697 kb/s
Movie name                     : Race 3 2018 GOPISAHI

Video
Format                         : AVC
Format/Info                    : Advanced Video Codec
Codec ID                       : V_MPEG4/ISO/AVC
Duration                       : 2 h 35 min
Bit rate                       : 599 kb/s
Width                          : 1 280 pixels
Height                         : 536 pixels
Display aspect ratio           : 2.40:1
Frame rate mode                : Constant
Frame rate                     : 23.621 FPS
Color space                    : YUV
Chroma subsampling             : 4:2:0
Bit depth                      : 8 bits
Scan type                      : Progressive
Bits/(Pixel*Frame)             : 0.037
Stream size                    : 665 MiB (86%)
Title                          : GOPISAHI
Writing library                : x264 core 155 r2901 7d0ff22

Audio
Format                         : AAC
Duration                       : 2 h 35 min
Bit rate                       : 96.0 kb/s
Channel(s)                     : 2 channels
Channel positions              : Front: L R
Sampling rate                  : 48.0 kHz
Frame rate                     : 46.875 FPS (1024 SPF)
Compression mode               : Lossy
Delay relative to video        : -21 ms
Stream size                    : 107 MiB (14%)
Title                          : GOPISAHI
Language                       : Hindi

Text
Language                       : English



TORRENT

MAGNET

https://linkstaker.bid/drive/download.php?id=daee02652fb955eef1d7

https://linksclub.biz/drive/download.php?id=95c81181aa520ee39019

http://1upload.pw/Download.php?url=YUNyS2o2OXZseS96bGprQksvME9PMHo5RXJUS3hTek90NWlvODVaTkJKUW50L083OUVORUNCZElyRVB0Q0x1ag==

http://www.indishare.me/axgq0ilu0xmf

https://uploadfiles.pw/d49150e21073f395

https://www.oboom.com/7HPKVKIM

https://megaup.net/9q6i/Race_3_2018_x264_720p_HD_Esub_Hindi_GOPISAHI.mkv

https://vidoza.net/eyoy1vs1757d.html

http://www.filefactory.com/file/6w1cqtttfiep/

https://openload.co/f/omjjsAundEk/Race_3_2018_x264_720p_HD_Esub_Hindi_GOPISAHI.mkv.mp4

https://bdupload.info/5gi8y5da6gw5

https://uptobox.com/lt9fffqr2rl7

400 MB

 Race 3
(2018) on IMDb


Post a Comment

2 Comments

  1. Admin video quality improve karo yaar zara.. kam MB me movie upload karna jaruri nahi pic quality badhiya honi chahiye to movie ka maza aata hai aapke pass to dubbed movies ka khajana par quality ki wajah se dekhne ka maza nahi aata

    ReplyDelete
    Replies
    1. OK bro but dub me 900 kbps hota hai,like yify , us se jyda kya ho , hundi low krata hoon abb bas

      Delete