Search

Red Dawn 2012 x264 720p Esub BluRay Dual Audio English Hindi GOPISAHI


Format                         : Matroska
Format version                 : Version 4 / Version 2
File size                      : 719 MiB
Duration                       : 1 h 33 min
Overall bit rate               : 1 077 kb/s
Movie name                     : Red Dawn 2012 GOPISAHI

Video
Format                         : AVC
Format/Info                    : Advanced Video Codec
Codec ID                       : V_MPEG4/ISO/AVC
Duration                       : 1 h 33 min
Bit rate                       : 899 kb/s
Width                          : 1 280 pixels
Height                         : 528 pixels
Display aspect ratio           : 2.40:1
Frame rate mode                : Constant
Frame rate                     : 23.976 (24000/1001) FPS
Color space                    : YUV
Chroma subsampling             : 4:2:0
Bit depth                      : 8 bits
Scan type                      : Progressive
Bits/(Pixel*Frame)             : 0.055
Stream size                    : 600 MiB (83%)
Title                          : GOPISAHI
Writing library                : x264 core 155 r2901 7d0ff22

Audio #1
Format                         : AAC
Format/Info                    : Advanced Audio Codec
Duration                       : 1 h 33 min
Bit rate                       : 88.7 kb/s
Channel(s)                     : 6 channels
Channel positions              : Front: L C R, Side: L R, LFE
Sampling rate                  : 44.1 kHz
Frame rate                     : 43.066 FPS (1024 SPF)
Compression mode               : Lossy
Stream size                    : 59.2 MiB (8%)
Title                          : GOPISAHI
Language                       : Hindi

Audio #2
Format                         : AAC
Format/Info                    : Advanced Audio Codec
Duration                       : 1 h 33 min
Bit rate                       : 87.4 kb/s
Channel(s)                     : 6 channels
Channel positions              : Front: L C R, Side: L R, LFE
Sampling rate                  : 44.1 kHz
Frame rate                     : 43.066 FPS (1024 SPF)
Compression mode               : Lossy
Stream size                    : 58.3 MiB (8%)
Title                          : GOPISAHI
Language                       : English

Text
Language                       : English



TORRENT

MAGNET

http://www.mediafire.com/file/wjo9n4vkr8gkv79/R_D_2012_.zip/file

https://uploadfiles.pw/70d086655c4919a5

http://www.indishare.me/xpjgt2v9rqke

https://www.oboom.com/8MYYZ5IL

https://megaup.net/5dnw/Red_Dawn_2012_x264_720p_Esub_BluRay_Dual_Audio_English_Hindi_GOPISAHI.mkv

http://www.filefactory.com/file/1zbd53i27gnr/

https://vidoza.net/1twrt8ka3a92.html

https://openload.co/f/KLhcki5ey-o/Red_Dawn_2012_x264_720p_Esub_BluRay_Dual_Audio_English_Hindi_GOPISAHI.mkv.mp4

https://bdupload.info/kx8z7n4rw0gz

https://uptobox.com/hdvu5tajodmo

https://uptostream.com/hdvu5tajodmo

250 MB HINDI

 Red Dawn
(2012) on IMDb


Post a Comment

1 Comments

  1. Please please please I am requesting this mini movie since 1 week please upload in HDRIP or WEB-DL
    http://www.solidfiles.com/d/dd5da60689/

    ReplyDelete