Search

Resident Evil Retribution 2012 x264 720p Esub BluRay Dual Audio English Hindi GOPISAHI


Format                         : Matroska
Format version                 : Version 4 / Version 2
File size                      : 695 MiB
Duration                       : 1 h 35 min
Overall bit rate               : 1 015 kb/s
Movie name                     : Resident Evil Retribution (2012) - GOPI SAHI

Video
Format                         : AVC
Format/Info                    : Advanced Video Codec
Format profile                 : [email protected]
Codec ID                       : V_MPEG4/ISO/AVC
Duration                       : 1 h 35 min
Bit rate                       : 852 kb/s
Width                          : 1 280 pixels
Height                         : 536 pixels
Display aspect ratio           : 2.40:1
Frame rate mode                : Constant
Frame rate                     : 23.976 (24000/1001) FPS
Color space                    : YUV
Chroma subsampling             : 4:2:0
Bit depth                      : 8 bits
Scan type                      : Progressive
Bits/(Pixel*Frame)             : 0.052
Stream size                    : 582 MiB (84%)
Title                          : GOPISAHI
Writing library                : x264 core 125 r2200 999b753

Audio #1
Format                         : AAC
Duration                       : 1 h 25 min
Bit rate                       : 83.6 kb/s
Channel(s)                     : 6 channels
Channel positions              : Front: L C R, Side: L R, LFE
Sampling rate                  : 44.1 kHz
Frame rate                     : 43.066 FPS (1024 SPF)
Compression mode               : Lossy
Delay relative to video        : -83 ms
Stream size                    : 51.2 MiB (7%)
Title                          : GOPISAHI
Language                       : Hindi

Audio #2
Format                         : AAC
Duration                       : 1 h 35 min
Bit rate                       : 87.0 kb/s
Channel(s)                     : 6 channels
Channel positions              : Front: L C R, Side: L R, LFE
Sampling rate                  : 44.1 kHz
Frame rate                     : 43.066 FPS (1024 SPF)
Compression mode               : Lossy
Delay relative to video        : -83 ms
Stream size                    : 59.5 MiB (9%)
Title                          : GOPISAHI
Language                       : English

Text
Language                       : English



TORRENT

MAGNET

http://www.indishare.me/mo4j0v886866

https://linkstaker.bid/drive/download.php?id=55f5083301ccecd12dbf

https://linksclub.biz/drive/download.php?id=7a91a2bafb23e4100690

 http://1upload.pw/Download.php?url=Z01IRnZJYUJKaWUwZk4rOVdxeGc4TThwWTYya2hTdnk4a0RuUEtFUXdBVDZYWHlLbm50NXN1R0FFRkZjRmhkQg==

https://uploadfiles.pw/89c3a4bd1d4c8eca

https://uptobox.com/5cezh8ss9pa6

https://uptostream.com/5cezh8ss9pa6

https://bdupload.info/i089ki40d8zc

https://www.oboom.com/KM4TY095

https://megaup.net/9qtZ/Resident_Evil_Retribution_2012_x264_720p_Esub_BluRay_Dual_Audio_English_Hindi_GOPISAHI.mkv

https://vidoza.net/bucygvufb909.html

https://openload.co/f/zH5HPL31VXM/Resident_Evil_Retribution_2012_x264_720p_Esub_BluRay_Dual_Audio_English_Hindi_GOPISAHI.mkv.mp4

http://www.filefactory.com/file/2o2u70whgb37/

https://vidlox.me/orcb708k8whc

250 MB


 Resident Evil: Retribution
(2012) on IMDb


Post a Comment

0 Comments