Search

Ribbon 2017 x264 720p HD Hindi GOPISAHI

Format                         : Matroska
Format version                 : Version 4 / Version 2
File size                      : 509 MiB
Duration                       : 1 h 42 min
Overall bit rate               : 695 kb/s
Movie name                     : Ribbon 2017 GOPISAHI

Video
Format                         : AVC
Format/Info                    : Advanced Video Codec
Codec ID                       : V_MPEG4/ISO/AVC
Duration                       : 1 h 42 min
Bit rate                       : 599 kb/s
Width                          : 1 280 pixels
Height                         : 536 pixels
Display aspect ratio           : 2.40:1
Frame rate mode                : Constant
Frame rate                     : 25.000 FPS
Color space                    : YUV
Chroma subsampling             : 4:2:0
Bit depth                      : 8 bits
Scan type                      : Progressive
Bits/(Pixel*Frame)             : 0.035
Stream size                    : 438 MiB (86%)
Title                          : GOPISAHI
Writing library                : x264 core 155 r2901 7d0ff22

Audio
Format                         : AAC
Duration                       : 1 h 42 min
Bit rate                       : 93.7 kb/s
Channel(s)                     : 2 channels
Channel positions              : Front: L R
Sampling rate                  : 48.0 kHz
Frame rate                     : 46.875 FPS (1024 SPF)
Compression mode               : Lossy
Delay relative to video        : -21 ms
Stream size                    : 68.6 MiB (13%)
Title                          : GOPISAHI
Language                       : Hindi



TORRENT

MAGNET

http://1upload.pw/Download.php?url=ZUJtTXlBcVNrYzNiNkptSHE3VFozcmJYUTVseFdJckFYUnRzOHliNFc1b1VSZi9rK21qd2JUU0tXTXBCZ015WA==

https://uploadfiles.pw/1d2d18a3ac92be16

http://www.indishare.me/6w9fzpu4q4ar

https://bdupload.info/t38c2qg7hd5s

https://uptobox.com/9ombvcfyz2yx

https://uptostream.com/9ombvcfyz2yx

http://www.filefactory.com/file/21g24bb72s25/

https://www.oboom.com/1KUFJ12N

https://megaup.net/9pzX/Ribbon_2017_x264_720p_HD_Hindi_GOPISAHI.mkv

https://vidoza.net/pfu41oq2zn8j.html

https://vidlox.me/egmaqiaoova5

https://openload.co/f/jCv3rdfewms/Ribbon%25202017%2520x264%2520720p%2520HD%2520Hindi%2520GOPISAHI.mkv

 Ribbon
(2017) on IMDb

Post a Comment

0 Comments