Search

Rise of the Guardians 2012 x264 720p Esub BluRay Dual Audio English Hindi GOPISAHI


Format                         : Matroska
Format version                 : Version 4 / Version 2
File size                      : 760 MiB
Duration                       : 1 h 37 min
Overall bit rate               : 1 093 kb/s
Movie name                     : Rise of the Guardians 2012 GOPISAHI

Video
Format                         : AVC
Format/Info                    : Advanced Video Codec
Codec ID                       : V_MPEG4/ISO/AVC
Duration                       : 1 h 37 min
Bit rate                       : 907 kb/s
Width                          : 1 280 pixels
Height                         : 720 pixels
Display aspect ratio           : 16:9
Frame rate mode                : Constant
Frame rate                     : 23.976 (24000/1001) FPS
Color space                    : YUV
Chroma subsampling             : 4:2:0
Bit depth                      : 8 bits
Scan type                      : Progressive
Bits/(Pixel*Frame)             : 0.041
Stream size                    : 630 MiB (83%)
Title                          : GOPISAHI
Writing library                : x264 core 129 r2245 bc13772
Language                       : English

Audio #1
Format                         : AAC
Format/Info                    : Advanced Audio Codec
Duration                       : 1 h 28 min
Bit rate                       : 96.0 kb/s
Channel(s)                     : 2 channels
Channel positions              : Front: L R
Sampling rate                  : 48.0 kHz
Frame rate                     : 46.875 FPS (1024 SPF)
Compression mode               : Lossy
Delay relative to video        : 4 s 226 ms
Stream size                    : 60.7 MiB (8%)
Title                          : GOPISAHI
Language                       : Hindi

Audio #2
Format                         : AAC
Format/Info                    : Advanced Audio Codec
Duration                       : 1 h 37 min
Bit rate                       : 96.0 kb/s
Channel(s)                     : 2 channels
Channel positions              : Front: L R
Sampling rate                  : 48.0 kHz
Frame rate                     : 46.875 FPS (1024 SPF)
Compression mode               : Lossy
Delay relative to video        : -83 ms
Stream size                    : 66.6 MiB (9%)
Title                          : GOPISAHI
Language                       : English

Text
Language                       : English



TORRENT

MAGNET

https://uploadfiles.pw/3b24002d9bb002e3

https://linksclub.biz/drive/download.php?id=98c29ed3aec00f787850

http://1upload.pw/Download.php?url=RDNYa0phU25sU0xqTFcrOERRVEtLZXM1ZTlQRmo1TWFhalBDZkg4UEt4L0c4Z3BBQTVmN202WitkRkR4Ykt4Wg==

https://linkstaker.bid/drive/download.php?id=c0a1ccf5ad777b2e5269

https://bdupload.info/2dz719vkg858

https://uptobox.com/83tk6l3cajfw

https://uptostream.com/83tk6l3cajfw

https://megaup.net/9swL/Rise_of_the_Guardians_2012_x264_720p_Esub_BluRay_Dual_Audio_English_Hindi_GOPISAHI.mkv

http://www.indishare.me/3i6u6i97ar77

https://www.oboom.com/CE4BDQPJ

https://openload.co/f/1wExGK40Wso/Rise_of_the_Guardians_2012_x264_720p_Esub_BluRay_Dual_Audio_English_Hindi_GOPISAHI.mkv

http://www.filefactory.com/file/7gex7mzgxld9/

https://vidoza.net/gsy3loyzjc5p.html

 Rise of the Guardians
(2012) on IMDb

Post a Comment

0 Comments