Search

Saab Bahadar 2017 x264 720p HD Punjabi GOPISAHI


Format                         : Matroska
Format version                 : Version 4 / Version 2
File size                      : 556 MiB
Duration                       : 1 h 51 min
Overall bit rate               : 695 kb/s
Movie name                     : Saab Bahadar 2017 GOPISAHI

Video
Format                         : AVC
Format/Info                    : Advanced Video Codec
Codec ID                       : V_MPEG4/ISO/AVC
Duration                       : 1 h 51 min
Bit rate                       : 599 kb/s
Width                          : 1 280 pixels
Height                         : 536 pixels
Display aspect ratio           : 2.40:1
Frame rate mode                : Constant
Frame rate                     : 24.843 FPS
Color space                    : YUV
Chroma subsampling             : 4:2:0
Bit depth                      : 8 bits
Scan type                      : Progressive
Bits/(Pixel*Frame)             : 0.035
Stream size                    : 479 MiB (86%)
Title                          : GOPISAHI
Writing library                : x264 core 155 r2901 7d0ff22

Audio
Format                         : AAC
Duration                       : 1 h 51 min
Bit rate                       : 96.0 kb/s
Channel(s)                     : 2 channels
Channel positions              : Front: L R
Sampling rate                  : 48.0 kHz
Frame rate                     : 46.875 FPS (1024 SPF)
Compression mode               : Lossy
Delay relative to video        : -101 ms
Stream size                    : 75.3 MiB (14%)
Title                          : GOPISAHI
Language                       : Panjabi




TORRENT

MAGNET

http://1upload.pw/Download.php?url=ZlcxVDRFc2w5SE1PZUl1ckMrWGhlZURqaDFHTmN3U2dDa2ZaM2Vza1FscWEzME81L2MvMDNYUzkvTVZaSitZNw==

https://linkstaker.bid/drive/download.php?id=9d6a6f70cdb3eef8fd5a

https://linksclub.biz/drive/download.php?id=59881e3135c2df1413a0

https://openload.co/f/YSqcKLCJISU/Saab%2520Bahadar%25202017%2520x264%2520720p%2520HD%2520Esub%2520Punjabi%2520GOPISAHI.mkv.mp4

http://www.indishare.me/yhdswf6othja

https://uploadfiles.pw/529fd6ef8bedf3b7

https://vidoza.net/vhiapgjqu4qw.html

https://bdupload.info/pl96t8unz03a

https://uptobox.com/f0gfnfvu94qp

https://uptostream.com/f0gfnfvu94qp

https://www.oboom.com/8HJWO3VY

https://megaup.net/5gy4/Saab_Bahadar_2017_x264_720p_HD_Esub_Punjabi_GOPISAHI.mkv

http://www.filefactory.com/file/32vgr8aa61p7/

https://cloudvideo.tv/dl?op=download_orig&id=g353fkhwitbb&mode=n&hash=59574-117-222-1535359322-7437fa2358bd8dbeaf2428064c6f6a29

 Saab Bahadar
(2017) on IMDb

Post a Comment

0 Comments