Search

Safe 2012 x264 720p Esub BluRay Dual Audio English Hindi GOPISAHI

Format                         : Matroska
Format version                 : Version 4 / Version 2
File size                      : 810 MiB
Duration                       : 1 h 34 min
Overall bit rate               : 1 202 kb/s
Movie name                     : Safe 2012 GOPISAHI

Video
Format                         : AVC
Format/Info                    : Advanced Video Codec
Codec ID                       : V_MPEG4/ISO/AVC
Duration                       : 1 h 34 min
Bit rate                       : 1 015 kb/s
Width                          : 1 280 pixels
Height                         : 544 pixels
Display aspect ratio           : 2.35:1
Frame rate mode                : Constant
Frame rate                     : 23.976 (24000/1001) FPS
Color space                    : YUV
Chroma subsampling             : 4:2:0
Bit depth                      : 8 bits
Scan type                      : Progressive
Bits/(Pixel*Frame)             : 0.061
Stream size                    : 684 MiB (84%)
Title                          : GOPISAHI
Writing library                : x264 core 125 r2200 999b753

Audio #1
Format                         : AAC
Format/Info                    : Advanced Audio Codec
Duration                       : 1 h 26 min
Bit rate                       : 96.0 kb/s
Channel(s)                     : 2 channels
Channel positions              : Front: L R
Sampling rate                  : 48.0 kHz
Frame rate                     : 46.875 FPS (1024 SPF)
Compression mode               : Lossy
Delay relative to video        : -37 ms
Stream size                    : 59.7 MiB (7%)
Title                          : GOPISAHI
Language                       : Hindi

Audio #2
Format                         : AAC
Duration                       : 1 h 34 min
Bit rate                       : 96.0 kb/s
Channel(s)                     : 2 channels
Channel positions              : Front: L R
Sampling rate                  : 48.0 kHz
Frame rate                     : 46.875 FPS (1024 SPF)
Compression mode               : Lossy
Delay relative to video        : -125 ms
Stream size                    : 64.8 MiB (8%)
Title                          : GOPISAHI
Language                       : English

Text
Language                       : English



TORRENT

MAGNET

https://uploadfiles.pw/7dcfb28e4549bd58

https://megaup.net/5fn0/Safe_2012_x264_720p_Esub_BluRay_Dual_Audio_English_Hindi_GOPISAHI.mkv

https://vidoza.net/6u5qwvxfik9r.html

https://www.oboom.com/SEASODU4

http://www.filefactory.com/file/szmjc13r4up/

https://openload.co/f/aQQ02FtzBDE/Happy_Phirr_Bhag_Jayegi_2018_Hindi_PRE-DVDRip_x264_AAC_GOPISAHI.mp4

http://www.mediafire.com/file/c6pa3hr0gbtgl6o/Sa_2012_.zip/file

http://www.indishare.me/fo5z9dhtwigb

https://bdupload.info/l7u06i4py7kf

https://uptostream.com/6fduwb654975

https://uptobox.com/6fduwb654975


 Safe
(2012) on IMDb


Post a Comment

0 Comments