Search

Safe House 2012 x264 720p Esub BluRay Dual Audio English Hindi GOPISAHI


Format                         : Matroska
Format version                 : Version 4 / Version 2
File size                      : 829 MiB
Duration                       : 1 h 54 min
Overall bit rate               : 1 009 kb/s
Movie name                     : Safe House 2012 GOPISAHI

Video
Format                         : AVC
Format/Info                    : Advanced Video Codec
Codec ID                       : V_MPEG4/ISO/AVC
Duration                       : 1 h 54 min
Bit rate                       : 816 kb/s
Width                          : 1 280 pixels
Height                         : 528 pixels
Display aspect ratio           : 2.40:1
Frame rate mode                : Constant
Frame rate                     : 23.976 (24000/1001) FPS
Color space                    : YUV
Chroma subsampling             : 4:2:0
Bit depth                      : 8 bits
Scan type                      : Progressive
Bits/(Pixel*Frame)             : 0.050
Stream size                    : 670 MiB (81%)
Title                          : GOPISAHI
Writing library                : x264 core 120 r2164 da19765
Language                       : English

Audio #1
Format                         : AAC
Duration                       : 1 h 54 min
Bit rate                       : 96.0 kb/s
Channel(s)                     : 2 channels
Channel positions              : Front: L R
Sampling rate                  : 48.0 kHz
Frame rate                     : 46.875 FPS (1024 SPF)
Compression mode               : Lossy
Delay relative to video        : -50 ms
Stream size                    : 79.2 MiB (10%)
Title                          : GOPISAHI
Language                       : Hindi

Audio #2
Format                         : AAC
Duration                       : 1 h 54 min
Bit rate                       : 93.9 kb/s
Channel(s)                     : 2 channels
Channel positions              : Front: L R
Sampling rate                  : 44.1 kHz
Frame rate                     : 43.066 FPS (1024 SPF)
Compression mode               : Lossy
Delay relative to video        : -83 ms
Stream size                    : 77.2 MiB (9%)
Title                          : GOPISAHI
Language                       : English

Text
Language                       : English




TORRENT

MAGNET

http://1upload.pw/Download.php?url=THhwVzBtQmkzYUJsallWOVN4Z01uZitPaHcrejBjZzd2YkhML2JvY2N5SzlOZUE2WStFR0hQZnphWVlTTzRwaA==

https://linkstaker.bid/drive/download.php?id=64f96822fa2a67beb9f4

https://linksclub.biz/drive/download.php?id=df67701f3ea1e3369340

https://uploadfiles.pw/7dcfb28e4549bd58

https://megaup.net/5fn0/Safe_2012_x264_720p_Esub_BluRay_Dual_Audio_English_Hindi_GOPISAHI.mkv

https://www.oboom.com/ALEWKVE9

http://www.indishare.me/nut2p30xs7ar

https://bdupload.info/cxibtco49fsh

https://uptobox.com/zn8wci0p2it6

https://uptostream.com/zn8wci0p2it6

https://openload.co/f/0lGwh_S3BBE/Safe_House_2012_x264_720p_Esub_BluRay_Dual_Audio_English_Hindi_GOPISAHI.mkv.mp4

https://vidoza.net/dd27zbjrmqt4.html

http://www.filefactory.com/file/54gnw3rar12v/


 Safe House
(2012) on IMDb

Post a Comment

0 Comments