Search

Sniper Legacy 2014 x264 720p Esub BluRay Dual Audio English Hindi GOPISAHI


Format                         : Matroska
Format version                 : Version 4 / Version 2
File size                      : 627 MiB
Duration                       : 1 h 37 min
Overall bit rate               : 894 kb/s
Movie name                     : Sniper Legacy 2014 GOPISAHI


Video
ID                             : 1
Format                         : AVC
Format/Info                    : Advanced Video Codec
Format profile                 : [email protected]
Format settings                : CABAC / 16 Ref Frames
Format settings, CABAC         : Yes
Format settings, ReFrames      : 16 frames
Codec ID                       : V_MPEG4/ISO/AVC
Duration                       : 1 h 37 min
Bit rate                       : 699 kb/s
Width                          : 1 280 pixels
Height                         : 720 pixels
Display aspect ratio           : 16:9
Frame rate mode                : Constant
Frame rate                     : 23.976 (24000/1001) FPS
Color space                    : YUV
Chroma subsampling             : 4:2:0
Bit depth                      : 8 bits
Scan type                      : Progressive
Bits/(Pixel*Frame)             : 0.032
Stream size                    : 490 MiB (78%)
Title                          : GOPISAHI
Writing library                : x264 core 155 r2901 7d0ff22

Audio #1
Format                         : AAC
Format/Info                    : Advanced Audio Codec
Duration                       : 1 h 37 min
Bit rate                       : 96.0 kb/s
Channel(s)                     : 2 channels
Channel positions              : Front: L R
Sampling rate                  : 48.0 kHz
Frame rate                     : 46.875 FPS (1024 SPF)
Compression mode               : Lossy
Stream size                    : 67.7 MiB (11%)
Title                          : GOPISAHI
Language                       : Hindi

Audio #2
Format                         : AAC
Duration                       : 1 h 37 min
Bit rate                       : 96.0 kb/s
Channel(s)                     : 2 channels
Channel positions              : Front: L R
Sampling rate                  : 48.0 kHz
Frame rate                     : 46.875 FPS (1024 SPF)
Compression mode               : Lossy
Delay relative to video        : 42 ms
Stream size                    : 67.5 MiB (11%)
Title                          : GOPISAHI
Language                       : English

Text
Language                       : English



TORRENT

MAGNET

https://uploadfiles.pw/f59c65326dcd3e9e

https://linkstaker.bid/drive/download.php?id=df5e8ce67be29bad7982

http://1upload.pw/Download.php?url=MUttTHFHK0sxNEVSWXprdkhNR09palowYkY5UmdrTU55S09GZWcyU0laTDRzK0syOXh4SFhiYXhEWXQwb2k4bw==

https://megaup.net/qav0/Sniper_Legacy_2014_x264_720p_Esub_BluRay_Dual_Audio_English_Hindi_GOPISAHI.mkv

https://www.oboom.com/3VLOPY4I

https://openload.co/f/_ZiLR9gS_eg/Sniper%2520Legacy%25202014%2520x264%2520720p%2520Esub%2520BluRay%2520Dual%2520Audio%2520English%2520Hindi%2520GOPISAHI.mkv.mp4

http://www.filefactory.com/file/4ermxp0eqerz/

https://vidoza.net/h629aftcoolb.html

https://vidlox.me/mn7x99whf1s2

http://www.indishare.me/pvzo4fia7ape

https://bdupload.info/ow9a2uqrlpd9

https://uptobox.com/36afy5sv6h1l

https://uptostream.com/36afy5sv6h1l


 Sniper: Legacy
(2014) on IMDb

Post a Comment

0 Comments