Search

Snow White And The Huntsman 2012 Extended x264 720p Esub BluRay Dual Audio English Hindi GOPISAHI


Format                         : Matroska
Format version                 : Version 4 / Version 2
File size                      : 747 MiB
Duration                       : 2 h 11 min
Overall bit rate               : 794 kb/s
Movie name                     : Snow White And The Huntsman 2012 Extended GOPISAHI

Video
Format                         : AVC
Format/Info                    : Advanced Video Codec
Codec ID                       : V_MPEG4/ISO/AVC
Duration                       : 2 h 11 min
Bit rate                       : 599 kb/s
Width                          : 1 280 pixels
Height                         : 544 pixels
Display aspect ratio           : 2.35:1
Frame rate mode                : Constant
Frame rate                     : 23.976 (24000/1001) FPS
Color space                    : YUV
Chroma subsampling             : 4:2:0
Bit depth                      : 8 bits
Scan type                      : Progressive
Bits/(Pixel*Frame)             : 0.036
Stream size                    : 563 MiB (75%)
Title                          : GOPISAHI
Writing library                : x264 core 155 r2901 7d0ff22

Audio #1
Format                         : AAC
Duration                       : 2 h 11 min
Bit rate                       : 96.0 kb/s
Channel(s)                     : 2 channels
Channel positions              : Front: L R
Sampling rate                  : 48.0 kHz
Frame rate                     : 46.875 FPS (1024 SPF)
Compression mode               : Lossy
Delay relative to video        : -67 ms
Stream size                    : 90.4 MiB (12%)
Title                          : GOPISAHI
Language                       : Hindi

Audio #2
Format                         : AAC
Duration                       : 2 h 11 min
Bit rate                       : 96.0 kb/s
Channel(s)                     : 2 channels
Channel positions              : Front: L R
Sampling rate                  : 48.0 kHz
Frame rate                     : 46.875 FPS (1024 SPF)
Compression mode               : Lossy
Delay relative to video        : -67 ms
Stream size                    : 90.2 MiB (12%)
Title                          : GOPISAHI
Language                       : English

Text
Language                       : English



TORRENT

MAGNET

http://www.indishare.me/z1w6atq53x9a

https://uptobox.com/62mdtsbbx8i3

https://uptostream.com/62mdtsbbx8i3

https://bdupload.info/82zzghkdbad0

http://www.filefactory.com/file/r90k5clhih5/

https://www.oboom.com/Z2CLUNL1

http://www.mediafire.com/file/dcpsaz84pbery5f/S_W_A_The_H_2012_E.zip/file

https://megaup.net/hQpJ/Snow_White_And_The_Huntsman_2012_Extended_x264_720p_Esub_BluRay_Dual_Audio_English_Hindi_GOPISAHI.mkv

https://uploadfiles.pw/46cc615fe7c53701

https://vidoza.net/5lj851pwhxzd.html

350 mb hindi

 Snow White and the Huntsman
(2012) on IMDb


Post a Comment

0 Comments