Search

Stand Up Guys 2012 x264 720p Esub BluRay Dual Audio English Hindi GOPISAHI


Format                         : Matroska
Format version                 : Version 4 / Version 2
File size                      : 809 MiB
Duration                       : 1 h 34 min
Overall bit rate               : 1 192 kb/s
Movie name                     : Stand Up Guys 2012 GOPISAHI

Video
Format                         : AVC
Format/Info                    : Advanced Video Codec
Format profile                 : [email protected]
Codec ID                       : V_MPEG4/ISO/AVC
Duration                       : 1 h 34 min
Bit rate                       : 1 017 kb/s
Width                          : 1 280 pixels
Height                         : 536 pixels
Display aspect ratio           : 2.40:1
Frame rate mode                : Constant
Frame rate                     : 23.976 (24000/1001) FPS
Original frame rate            : 23.976 (23976/1000) FPS
Color space                    : YUV
Chroma subsampling             : 4:2:0
Bit depth                      : 8 bits
Scan type                      : Progressive
Bits/(Pixel*Frame)             : 0.062
Stream size                    : 691 MiB (85%)
Title                          : GOPISAHI
Writing library                : x264 core 132 r2 3b1f1f7

Audio #1
Format                         : AAC
Format/Info                    : Advanced Audio Codec
Duration                       : 1 h 29 min
Bit rate                       : 80.2 kb/s
Channel(s)                     : 1 channel
Channel positions              : Front: C
Sampling rate                  : 48.0 kHz
Frame rate                     : 46.875 FPS (1024 SPF)
Compression mode               : Lossy
Delay relative to video        : -83 ms
Stream size                    : 51.4 MiB (6%)
Title                          : GOPISAHI
Language                       : Hindi

Audio #2
Format                         : AAC
Duration                       : 1 h 34 min
Bit rate                       : 96.0 kb/s
Channel(s)                     : 2 channels
Channel positions              : Front: L R
Sampling rate                  : 48.0 kHz
Frame rate                     : 46.875 FPS (1024 SPF)
Compression mode               : Lossy
Delay relative to video        : -83 ms
Stream size                    : 65.2 MiB (8%)
Title                          : GOIPISAHI
Language                       : English

Text
Language                       : English



TORRENT

MAGNET

https://linkstaker.bid/drive/download.php?id=ef5d65605c00abec9a4c

http://1upload.pw/Download.php?url=cDZjOGhybWtLN3NTNzZaSzNvK1Iwc0NYYnB4VTdMTzdkUnIzU2FzZDlmQ1Q2REU1Tk1mRnRlblRSNUt2NnJQNA==

https://linksclub.biz/drive/download.php?id=3e48c9db70db6ef6d3d6

http://www.indishare.me/lbvgkyt7opw0

https://uptobox.com/lz1au0ssdx12

https://uptostream.com/lz1au0ssdx12

https://bdupload.info/rel8ba8q8ybs

https://uploadfiles.pw/ca92a7b81d80bc13

https://www.oboom.com/N496Z79R

https://megaup.net/hRXN/Stand_Up_Guys_2012_x264_720p_Esub_BluRay_Dual_Audio_English_Hindi_GOPISAHI.mkv

http://www.filefactory.com/file/21qofbv1wygd/

https://vidoza.net/ekfmfrky6sei.html

https://openload.co/f/L77FbemAF1g/Stand%2520Up%2520Guys%25202012%2520x264%2520720p%2520Esub%2520BluRay%2520Dual%2520Audio%2520English%2520Hindi%2520GOPISAHI.mkv.mp4

 Stand Up Guys
(2012) on IMDb

Post a Comment

0 Comments