Search

Stolen 2012 x264 720p Esub BluRay Dual Audio English Hindi GOPISAHI


Format                         : Matroska
Format version                 : Version 4 / Version 2
File size                      : 612 MiB
Duration                       : 1 h 35 min
Overall bit rate               : 893 kb/s
Movie name                     : Stolen 2012 GOPISAHI

Video
Format                         : AVC
Format/Info                    : Advanced Video Codec
Format profile                 : [email protected]
Codec ID                       : V_MPEG4/ISO/AVC
Duration                       : 1 h 35 min
Bit rate                       : 699 kb/s
Width                          : 1 280 pixels
Height                         : 720 pixels
Display aspect ratio           : 16:9
Frame rate mode                : Constant
Frame rate                     : 24.000 FPS
Color space                    : YUV
Chroma subsampling             : 4:2:0
Bit depth                      : 8 bits
Scan type                      : Progressive
Bits/(Pixel*Frame)             : 0.032
Stream size                    : 479 MiB (78%)
Title                          : GOPISAHI
Writing library                : x264 core 155 r2901 7d0ff22

Audio #1
Format                         : AAC
Format/Info                    : Advanced Audio Codec
Duration                       : 1 h 35 min
Bit rate                       : 96.0 kb/s
Channel(s)                     : 2 channels
Channel positions              : Front: L R
Sampling rate                  : 48.0 kHz
Frame rate                     : 46.875 FPS (1024 SPF)
Compression mode               : Lossy
Delay relative to video        : 1 s 100 ms
Stream size                    : 65.5 MiB (11%)
Title                          : GOPISAHI
Language                       : Hindi

Audio #2
Format                         : AAC
Format/Info                    : Advanced Audio Codec
Duration                       : 1 h 35 min
Bit rate                       : 96.0 kb/s
Channel(s)                     : 2 channels
Channel positions              : Front: L R
Sampling rate                  : 48.0 kHz
Frame rate                     : 46.875 FPS (1024 SPF)
Compression mode               : Lossy
Delay relative to video        : -21 ms
Stream size                    : 66.0 MiB (11%)
Title                          : GOPISAHI
Language                       : English

Text
Language                       : English



TORRENT

MAGNET

http://1upload.pw/Download.php?url=SlBGZStMMVBwL1dsdWwrbm5TT3ZrUm80MWJpdTIwZTAyRlhKa2tlYy9SWElyTjliL0V1ajVTUlFYMWZMWWxTTA==

https://linkstaker.bid/drive/download.php?id=5e9e98e16d36515da0f8

https://linksclub.biz/drive/download.php?id=5f0d2d963a098cbfcd68

http://www.indishare.me/rqi0fole48qs

https://uploadfiles.pw/3f3db9da6a6a0e38

https://www.oboom.com/PU61VWQX

https://megaup.net/9t8s/Stolen_2012_x264_720p_Esub_BluRay_Dual_Audio_English_Hindi_GOPISAHI.mkv

https://uptobox.com/gx6qoa6gnxsw

https://uptostream.com/gx6qoa6gnxsw

https://openload.co/f/Ay-i1H7vYF4/Stolen%25202012%2520x264%2520720p%2520Esub%2520BluRay%2520Dual%2520Audio%2520English%2520Hindi%2520GOPISAHI.mkv

https://vidoza.net/d25561r25opn.html

http://www.filefactory.com/file/2bfy0gnbp8uv/


 Stolen
(2012) on IMDb

Post a Comment

0 Comments