Search

The Assassins 2012 x264 720p BluRay Dual Audio English Hindi GOPISAHI


Format                         : Matroska
Format version                 : Version 4 / Version 2
File size                      : 702 MiB
Duration                       : 1 h 38 min
Overall bit rate               : 994 kb/s
Movie name                     : The Assassins 2012 GOPISAHI

Video
Format                         : AVC
Format/Info                    : Advanced Video Codec
Codec ID                       : V_MPEG4/ISO/AVC
Duration                       : 1 h 38 min
Bit rate                       : 799 kb/s
Width                          : 1 280 pixels
Height                         : 544 pixels
Display aspect ratio           : 2.35:1
Frame rate mode                : Constant
Frame rate                     : 25.000 FPS
Color space                    : YUV
Chroma subsampling             : 4:2:0
Bit depth                      : 8 bits
Scan type                      : Progressive
Bits/(Pixel*Frame)             : 0.046
Stream size                    : 564 MiB (80%)
Title                          : GOPISAHI
Writing library                : x264 core 155 r2901 7d0ff22

Audio #1
Format                         : AAC
Format/Info                    : Advanced Audio Codec
Duration                       : 1 h 38 min
Bit rate                       : 96.0 kb/s
Channel(s)                     : 2 channels
Channel positions              : Front: L R
Sampling rate                  : 48.0 kHz
Frame rate                     : 46.875 FPS (1024 SPF)
Compression mode               : Lossy
Delay relative to video        : 31 ms
Stream size                    : 68.1 MiB (10%)
Title                          : GOPISAHI
Language                       : Hindi

Audio #2
Format                         : AAC
Duration                       : 1 h 38 min
Bit rate                       : 96.0 kb/s
Channel(s)                     : 2 channels
Channel positions              : Front: L R
Sampling rate                  : 48.0 kHz
Frame rate                     : 46.875 FPS (1024 SPF)
Compression mode               : Lossy
Delay relative to video        : 31 ms
Stream size                    : 67.9 MiB (10%)
Title                          : GOPISAHI
Language                       : English



TORRENT

MAGNET

https://uploadfiles.pw/acbc9cf7c473bea1

http://www.mediafire.com/file/clfucllli8fzyef/T_A_2012_.zip/file

https://vidoza.net/mz8imcw8kjje.html

 https://megaup.net/9u4h/The_Assassins_2012_x264_720p_BluRay_Dual_Audio_English_Hindi_GOPISAHI.mkv

https://www.oboom.com/OPDI1QSB

http://www.indishare.me/tirooii4hhhf

https://bdupload.info/semh15pn15tc

https://uptobox.com/nba9rpn93o8u

https://uptostream.com/nba9rpn93o8u

https://openload.co/f/JAPGAqqmpXA/The_Assassins_2012_x264_720p_BluRay_Dual_Audio_English_Hindi_GOPISAHI.mkv.mp4

https://www.filefactory.com/file/1sjjs217dqjn/The_Assassins_2012_x264_720p_BluRay_Dual_Audio_English_Hindi_GOPISAHI.mkv


 The Assassins
(2012) on IMDb

Post a Comment

0 Comments