Search

The Collection 2012 x264 720p Esub BluRay Dual Audio English Hindi GOPISAHI


Format                         : Matroska
Format version                 : Version 4 / Version 2
File size                      : 575 MiB
Duration                       : 1 h 21 min
Overall bit rate               : 984 kb/s
Movie name                     : The Collection 2012 GOPISAHI

Video
Format                         : AVC
Format/Info                    : Advanced Video Codec
Codec ID                       : V_MPEG4/ISO/AVC
Duration                       : 1 h 21 min
Bit rate                       : 799 kb/s
Width                          : 1 280 pixels
Height                         : 536 pixels
Display aspect ratio           : 2.40:1
Frame rate mode                : Constant
Frame rate                     : 24.000 FPS
Color space                    : YUV
Chroma subsampling             : 4:2:0
Bit depth                      : 8 bits
Scan type                      : Progressive
Bits/(Pixel*Frame)             : 0.049
Stream size                    : 466 MiB (81%)
Title                          : GOPISAHI
Writing library                : x264 core 155 r2901 7d0ff22

Audio #1
Format                         : AAC
Duration                       : 1 h 13 min
Bit rate                       : 96.0 kb/s
Channel(s)                     : 2 channels
Channel positions              : Front: L R
Sampling rate                  : 48.0 kHz
Frame rate                     : 46.875 FPS (1024 SPF)
Compression mode               : Lossy
Delay relative to video        : -71 ms
Stream size                    : 50.5 MiB (9%)
Title                          : GOPISAHI
Language                       : Hindi

Audio #2
Format                         : AAC
Format/Info                    : Advanced Audio Codec
Duration                       : 1 h 21 min
Bit rate                       : 96.0 kb/s
Channel(s)                     : 2 channels
Channel positions              : Front: L R
Sampling rate                  : 48.0 kHz
Frame rate                     : 46.875 FPS (1024 SPF)
Compression mode               : Lossy
Delay relative to video        : -104 ms
Stream size                    : 56.1 MiB (10%)
Title                          : GOPISAHI
Language                       : English

Text
Language                       : English



TORRENT

MAGNET

https://linkstaker.bid/drive/download.php?id=63da8d4c6eb0a6434024

https://linksclub.biz/drive/download.php?id=3a596bc558464b237c3b

http://1upload.pw/Download.php?url=WGszWE5kY011ZnZERjBKSVoxREl1enpzM21mRWZPa3FZdDY0aDl1QVFxTzlXY3JMY21PbVhHUiswL0crZzNsTg==

https://uploadfiles.pw/78ede5cc048ec22a

http://www.indishare.me/6d3iwfg3tgav

https://uptobox.com/il08asfytqsn

https://uptobox.com/il08asfytqsn

https://bdupload.info/q2s5g0acy67d

https://www.oboom.com/NNLN87J5

 https://openload.co/f/zHcf7Vq_VCg

 https://vidoza.net/ce1uj4mz54oz.html

http://www.filefactory.com/file/2s5xmfv9njyf/

https://megaup.net/9tPb/The_Collection_2012_x264_720p_Esub_BluRay_Dual_Audio_English_Hindi_GOPISAHI.mkv

 The Collection
(2012) on IMDb

Post a Comment

2 Comments

  1. http://telugupalaka.com/do-or-die-telugu-dubbed-1991-unrated-dvdrip-multi-audio/

    ReplyDelete
  2. Sir game of thrones s2 hindi dub 1 September ko release hoga to jaldi upload krna....

    ReplyDelete