The Impossible 2012 x264 720p Esub BluRay Dual Audio English Hindi GOPISAHI


Format                         : Matroska
Format version                 : Version 4 / Version 2
File size                      : 806 MiB
Duration                       : 1 h 53 min
Overall bit rate               : 993 kb/s
Movie name                     : The Impossible 2012 GOPISAHI

Video
Format                         : AVC
Format/Info                    : Advanced Video Codec
Codec ID                       : V_MPEG4/ISO/AVC
Duration                       : 1 h 53 min
Bit rate                       : 799 kb/s
Width                          : 1 280 pixels
Height                         : 542 pixels
Display aspect ratio           : 2.35:1
Frame rate mode                : Constant
Frame rate                     : 24.000 FPS
Color space                    : YUV
Chroma subsampling             : 4:2:0
Bit depth                      : 8 bits
Scan type                      : Progressive
Bits/(Pixel*Frame)             : 0.048
Stream size                    : 648 MiB (80%)
Title                          : GOPISAHI
Writing library                : x264 core 155 r2901 7d0ff22

Audio #1
Format                         : AAC
Format/Info                    : Advanced Audio Codec
Duration                       : 1 h 53 min
Bit rate                       : 96.0 kb/s
Channel(s)                     : 2 channels
Channel positions              : Front: L R
Sampling rate                  : 48.0 kHz
Frame rate                     : 46.875 FPS (1024 SPF)
Compression mode               : Lossy
Delay relative to video        : -21 ms
Stream size                    : 77.8 MiB (10%)
Title                          : GOPISAHI
Language                       : Hindi

Audio #2
Format                         : AAC
Duration                       : 1 h 53 min
Bit rate                       : 96.0 kb/s
Channel(s)                     : 2 channels
Channel positions              : Front: L R
Sampling rate                  : 48.0 kHz
Frame rate                     : 46.875 FPS (1024 SPF)
Compression mode               : Lossy
Delay relative to video        : -21 ms
Stream size                    : 77.9 MiB (10%)
Title                          : GOPISAHI
Language                       : English

Text
Language                       : English



TORRENT

MAGNET

https://uploadfiles.pw/b6ffd01b1ab06a2c

http://www.mediafire.com/file/evyrriqur283l3f/T_I_2012_.zip/file

https://www.oboom.com/OD2B3U9E

http://www.indishare.me/816t6mf399uf

https://uptobox.com/yavwk7yqn6gq

https://bdupload.info/g1j2o2lhav3i

https://openload.co/f/aF2lNNn1GU4/The_Impossible_2012_x264_720p_Esub_BluRay_Dual_Audio_English_Hindi_GOPISAHI.mkv.mp4

https://vidoza.net/ci1nso8ylnot.html

http://www.filefactory.com/file/4dd8ybpsakdh/

https://megaup.net/9uvD/The_Impossible_2012_x264_720p_Esub_BluRay_Dual_Audio_English_Hindi_GOPISAHI.mkv




 The Impossible
(2012) on IMDb

Post a Comment

0 Comments