Search

The Man with the Iron Fists 2012 UNRATED x264 720p Esub BluRay Dual Audio English Hindi GOPISAHI


Format                         : Matroska
Format version                 : Version 4 / Version 2
File size                      : 814 MiB
Duration                       : 1 h 47 min
Overall bit rate               : 1 059 kb/s
Movie name                     : The Man with the Iron Fists 2012 UNRATED GOPISAHI

Video
Format                         : AVC
Format/Info                    : Advanced Video Codec
Format profile                 : [email protected]
Codec ID                       : V_MPEG4/ISO/AVC
Duration                       : 1 h 47 min
Bit rate                       : 812 kb/s
Width                          : 1 280 pixels
Height                         : 536 pixels
Display aspect ratio           : 2.40:1
Frame rate mode                : Constant
Frame rate                     : 23.976 (24000/1001) FPS
Color space                    : YUV
Chroma subsampling             : 4:2:0
Bit depth                      : 8 bits
Scan type                      : Progressive
Bits/(Pixel*Frame)             : 0.049
Stream size                    : 624 MiB (77%)
Title                          : GOPISAHI
Writing library                : x264 core 129 r2230 1cffe9f

Audio #1
Format                         : AAC
Format/Info                    : Advanced Audio Codec
Duration                       : 1 h 47 min
Bit rate                       : 149 kb/s
Channel(s)                     : 2 channels
Channel positions              : Front: L R
Sampling rate                  : 44.1 kHz
Frame rate                     : 43.066 FPS (1024 SPF)
Compression mode               : Lossy
Stream size                    : 115 MiB (14%)
Title                          : GOPISAHI
Language                       : Hindi

Audio #2
Format                         : AAC
Format/Info                    : Advanced Audio Codec
Duration                       : 1 h 47 min
Bit rate                       : 96.0 kb/s
Channel(s)                     : 2 channels
Channel positions              : Front: L R
Sampling rate                  : 48.0 kHz
Frame rate                     : 46.875 FPS (1024 SPF)
Compression mode               : Lossy
Stream size                    : 73.5 MiB (9%)
Title                          : GOPISAHI
Language                       : English

Text
Language                       : English



TORRENT

MAGNET

 http://1upload.pw/Download.php?url=c3FwR0c1K2NXQWtKYkhjYVhhdkJjNi9LWXdSbXgzRUpkdjZ3bmlWVzVqWXJiTVl5L3picmJpTUdiVFRGaXc2aA==

https://linkstaker.bid/drive/download.php?id=8a85d452aa763254cc97

https://linksclub.biz/drive/download.php?id=691781b4667342291cab

http://www.indishare.me/r4i2ke2bs77i

https://uptobox.com/x1w2sssk96wp

https://uptostream.com/x1w2sssk96wp

https://bdupload.info/vzouctjfkxlj

https://uploadfiles.pw/7ca1245c4369c352

https://www.oboom.com/N6A52S82

https://megaup.net/hRXZ/The_Man_with_the_Iron_Fists_2012_UNRATED_x264_720p_Esub_BluRay_Dual_Audio_English_Hindi_GOPISAHI.mkv

https://openload.co/f/o49GW5pYtyc/The%2520Man%2520with%2520the%2520Iron%2520Fists%25202012%2520UNRATED%2520x264%2520720p%2520Esub%2520BluRay%2520Dual%2520Audio%2520English%2520Hindi%2520GOPISAHI.mkv

https://vidoza.net/ej4xtx4n19l8.html

http://www.filefactory.com/file/ojf8qhrmcf1/


 The Man with the Iron Fists
(2012) on IMDb

Post a Comment

0 Comments