Search

Toba Tek Singh 2018 x264 720p Esub HD Hindi GOPISAHI


Format                         : Matroska
Format version                 : Version 4 / Version 2
File size                      : 466 MiB
Duration                       : 1 h 12 min
Overall bit rate               : 897 kb/s
Movie name                     : Toba Tek Singh 2018 GOPISAHI

Video
Format                         : AVC
Format/Info                    : Advanced Video Codec
Codec ID                       : V_MPEG4/ISO/AVC
Duration                       : 1 h 12 min
Bit rate                       : 799 kb/s
Width                          : 1 280 pixels
Height                         : 546 pixels
Display aspect ratio           : 2.35:1
Frame rate mode                : Constant
Frame rate                     : 24.000 FPS
Color space                    : YUV
Chroma subsampling             : 4:2:0
Bit depth                      : 8 bits
Scan type                      : Progressive
Bits/(Pixel*Frame)             : 0.048
Stream size                    : 415 MiB (89%)
Title                          : GOPISAHI
Writing library                : x264 core 155 r2901 7d0ff22

Audio
Format                         : AAC
Format/Info                    : Advanced Audio Codec
Duration                       : 1 h 12 min
Bit rate                       : 96.0 kb/s
Channel(s)                     : 2 channels
Channel positions              : Front: L R
Sampling rate                  : 48.0 kHz
Frame rate                     : 46.875 FPS (1024 SPF)
Compression mode               : Lossy
Delay relative to video        : -104 ms
Stream size                    : 50.0 MiB (11%)
Title                          : GOPISAHI
Language                       : Hindi



TORRENT

MAGNET

 https://uploadfiles.pw/e9e14b735b0a87dc
http://1upload.pw/Download.php?url=aWlMbktCbmNLK0d4RGNTY05RMXlxSWFQTDkxYkRobjhsVllyam1KN2NlaXppeWFXVWtPWjRMRzY3UWMwMWNOeA==

https://linkstaker.bid/drive/download.php?id=35454b7c8f3b43dde907

https://linksclub.biz/drive/download.php?id=205b2421e1383801ba59

http://www.indishare.me/cgfk5dgld4zl

https://bdupload.info/crcjhvonas68

https://uptobox.com/8k7k5gcri92n

https://uptostream.com/8k7k5gcri92n

https://openload.co/f/z33KeX-McT8/Toba%2520Tek%2520Singh%25202018%2520x264%2520720p%2520Esub%2520HD%2520Hindi%2520GOPISAHI.mkv.mp4

https://vidoza.net/0yl69fo18aux.html

http://www.filefactory.com/file/74nq41l6csyz/

https://megaup.net/hQ2C/Toba_Tek_Singh_2018_x264_720p_Esub_HD_Hindi_GOPISAHI.mkv

https://www.oboom.com/58EDBC1X

 Toba Tek Singh
(2018) on IMDb

Post a Comment

0 Comments