Search

Undiscovered Tomb 2002 x264 720p TV Dual Audio Hindi GOPISAHI


Format                         : Matroska
Format version                 : Version 4 / Version 2
File size                      : 572 MiB
Duration                       : 1 h 29 min
Overall bit rate               : 892 kb/s
Movie name                     : Undiscovered Tomb 2002 GOPISAHI

Video
Format                         : AVC
Format/Info                    : Advanced Video Codec
Codec ID                       : V_MPEG4/ISO/AVC
Duration                       : 1 h 29 min
Bit rate                       : 599 kb/s
Width                          : 1 280 pixels
Height                         : 720 pixels
Display aspect ratio           : 16:9
Frame rate mode                : Constant
Frame rate                     : 25.000 FPS
Color space                    : YUV
Chroma subsampling             : 4:2:0
Bit depth                      : 8 bits
Scan type                      : Progressive
Bits/(Pixel*Frame)             : 0.026
Stream size                    : 384 MiB (67%)
Title                          : GOPISAHI
Writing library                : x264 core 155 r2901 7d0ff22

Audio #1
Format                         : AAC
Format/Info                    : Advanced Audio Codec
Duration                       : 1 h 29 min
Bit rate                       : 96.0 kb/s
Channel(s)                     : 2 channels
Channel positions              : Front: L R
Sampling rate                  : 48.0 kHz
Frame rate                     : 46.875 FPS (1024 SPF)
Compression mode               : Lossy
Delay relative to video        : -21 ms
Stream size                    : 61.7 MiB (11%)
Title                          : GOPISAHI
Language                       : Hindi

Audio #2
Format                         : AAC
Format/Info                    : Advanced Audio Codec
Duration                       : 1 h 29 min
Bit rate                       : 64.4 kb/s
Channel(s)                     : 2 channels
Channel positions              : Front: L R
Sampling rate                  : 48.0 kHz
Frame rate                     : 46.875 FPS (1024 SPF)
Compression mode               : Lossy
Delay relative to video        : -21 ms
Stream size                    : 41.3 MiB (7%)
Title                          : GOPISAHI
Language                       : Telugu

Audio #3
Format                         : AAC
Format/Info                    : Advanced Audio Codec
Duration                       : 1 h 29 min
Bit rate                       : 64.3 kb/s
Channel(s)                     : 2 channels
Channel positions              : Front: L R
Sampling rate                  : 48.0 kHz
Frame rate                     : 46.875 FPS (1024 SPF)
Compression mode               : Lossy
Delay relative to video        : -21 ms
Stream size                    : 41.2 MiB (7%)
Title                          : GOPISAHI
Language                       : Tamil

Audio #4
Format                         : AAC
Format/Info                    : Advanced Audio Codec
Duration                       : 1 h 29 min
Bit rate                       : 64.2 kb/s
Channel(s)                     : 2 channels
Channel positions              : Front: L R
Sampling rate                  : 48.0 kHz
Frame rate                     : 46.875 FPS (1024 SPF)
Compression mode               : Lossy
Delay relative to video        : -21 ms
Stream size                    : 41.2 MiB (7%)
Title                          : GOPISAHI
Language                       : Chinese






http://www.indishare.me/wffya0k29vu4

https://www.oboom.com/IF0RD9F5

https://megaup.net/5bzy/Undiscovered_Tomb_2002_x264_720p_TV_Dual_Audio_Hindi_GOPISAHI.mkv

http://www.filefactory.com/file/7f5aucc50zwd/

https://openload.co/f/Twtswg9YPC4/Undiscovered_Tomb_2002_x264_720p_TV_Dual_Audio_Hindi_GOPISAHI.mkv.mp4

https://vidoza.net/f4bdp9c42qqv.html

https://vidlox.me/l5dn54uc15cd



 Undiscovered Tomb
(2002) on IMDb


Post a Comment

0 Comments