Search

Vadhaiyan Ji Vadhaiyan 2018 NON Retail DVD RIP Punjabi GOPISAHI


Format                         : MPEG-4
Format profile                 : Base Media / Version 2
Codec ID                       : mp42 (isom/iso2/avc1/mp41)
File size                      : 510 MiB
Duration                       : 1 h 58 min
Overall bit rate mode          : Variable


Video
Format                         : AVC
Format/Info                    : Advanced Video Codec
Codec ID/Info                  : Advanced Video Coding
Duration                       : 1 h 58 min
Bit rate                       : 499 kb/s
Width                          : 638 pixels
Height                         : 348 pixels
Display aspect ratio           : 2.2:1
Frame rate mode                : Constant
Frame rate                     : 30.000 FPS
Color space                    : YUV
Chroma subsampling             : 4:2:0
Bit depth                      : 8 bits
Scan type                      : Progressive
Bits/(Pixel*Frame)             : 0.075
Stream size                    : 423 MiB (83%)
Writing library                : x264 core 155 r2901 7d0ff22

Audio
Format                         : AAC
Duration                       : 1 h 58 min
Bit rate mode                  : Variable
Bit rate                       : 96.0 kb/s
Channel(s)                     : 2 channels
Channel positions              : Front: L R
Sampling rate                  : 48.0 kHz
Frame rate                     : 46.875 FPS (1024 SPF)
Compression mode               : Lossy
Stream size                    : 81.2 MiB (16%)
Title                          : Stereo / Stereo
Default                        : Yes
Alternate group                : 1
Encoded date                   : UTC 2018-08-25 07:22:20
Tagged date                    : UTC 2018-08-25 07:22:20




TORRENT

MAGNET

https://uploadfiles.pw/b02e6f06814d848d

https://bdupload.info/i5o4e12rq7pp

https://cloudvideo.tv/dl?op=download_orig&id=yau8k716xwsn&mode=n&hash=58356-117-222-1535189187-f2c7589eeb7b3b46cddb499cb5b0d7c0

https://uptobox.com/e6br6k306ini

https://uptostream.com/e6br6k306ini

https://openload.co/f/tjmRZtfUkZk/Vadhaiyan%2520Ji%2520Vadhaiyan%25202018%2520NON%2520Retail%2520DVD%2520RIP%2520Punjabi%2520GOPISAHI.mp4

https://www.oboom.com/AALOFKC1

https://megaup.net/hPV4/Vadhaiyan_Ji_Vadhaiyan_2018_NON_Retail_DVD_RIP_Punjabi_GOPISAHI.mp4

http://www.indishare.me/bdqbxl34yad5

http://www.filefactory.com/file/5jg00jzfplgp/

https://vidoza.net/0mn05zwdoqbc.html

 Vadhayiyaan Ji Vadhayiyaan
(2018) on IMDb

Post a Comment

0 Comments