+18 Bad Teacher 2011 x264 720p Esub BluRay Dual Audio English Hindi GOPISAHI


Format                         : Matroska
Format version                 : Version 4 / Version 2
File size                      : 624 MiB
Duration                       : 1 h 37 min
Overall bit rate               : 894 kb/s
Movie name                     : Bad Teacher 2011 GOPISAHI

Video
Format                         : AVC
Format/Info                    : Advanced Video Codec
Codec ID                       : V_MPEG4/ISO/AVC
Duration                       : 1 h 37 min
Bit rate                       : 699 kb/s
Width                          : 1 280 pixels
Height                         : 692 pixels
Display aspect ratio           : 1.85:1
Frame rate mode                : Constant
Frame rate                     : 23.976 (24000/1001) FPS
Color space                    : YUV
Chroma subsampling             : 4:2:0
Bit depth                      : 8 bits
Scan type                      : Progressive
Bits/(Pixel*Frame)             : 0.033
Stream size                    : 488 MiB (78%)
Title                          : GOPISAHI
Writing library                : x264 core 155 r2901 7d0ff22

Audio #1
Format                         : AAC
Duration                       : 1 h 37 min
Bit rate                       : 96.0 kb/s
Channel(s)                     : 2 channels
Channel positions              : Front: L R
Sampling rate                  : 48.0 kHz
Frame rate                     : 46.875 FPS (1024 SPF)
Compression mode               : Lossy
Delay relative to video        : -21 ms
Stream size                    : 67.2 MiB (11%)
Title                          : GOPISAHI
Language                       : Hindi

Audio #2
Format                         : AAC
Duration                       : 1 h 37 min
Bit rate                       : 96.0 kb/s
Channel(s)                     : 2 channels
Channel positions              : Front: L R
Sampling rate                  : 48.0 kHz
Frame rate                     : 46.875 FPS (1024 SPF)
Compression mode               : Lossy
Delay relative to video        : 9 ms
Stream size                    : 67.2 MiB (11%)
Title                          : GOPISAHI
Language                       : English

Text
Language                       : English

Menu
00:00:00.000                   : en:00:00:00.000
00:06:32.767                   : en:00:06:32.767
00:11:46.915                   : en:00:11:46.915
00:19:41.972                   : en:00:19:41.972
00:24:44.900                   : en:00:24:44.900
00:33:07.235                   : en:00:33:07.235
00:41:08.967                   : en:00:41:08.841
00:45:41.030                   : en:00:45:41.030
00:49:59.413                   : en:00:49:59.413
00:52:48.957                   : en:00:52:48.957
00:57:37.204                   : en:00:57:37.204
01:03:36.938                   : en:01:03:36.938
01:11:14.353                   : en:01:11:14.187
01:15:57.928                   : en:01:15:57.928
01:22:34.199                   : en:01:22:34.199
01:28:46.613                   : en:01:28:46.530



TORRENT

MAGNET

https://www.oboom.com/MI3QOH3R

https://uploadfiles.pw/c6226bdc2a2e0207

https://megaup.net/5o73/18_Bad_Teacher_2011_x264_720p_Esub_BluRay_Dual_Audio_English_Hindi_GOPISAHI.mkv

http://www.filefactory.com/file/76ojc6r33nor/

https://openload.co/f/lWzFEF12Q-s/18%2520Bad%2520Teacher%25202011%2520x264%2520720p%2520Esub%2520BluRay%2520Dual%2520Audio%2520English%2520Hindi%2520GOPISAHI.mkv.mp4

http://1upload.pw/Download.php?url=T0NtY2dlc25WSHpZb0FwV3NWZ2dhZVUrMi9tRURlL08vRGxZaXRGT2x1enByL0x2VERtdGE3bUxFazZtMW1MdQ==

https://linkstaker.bid/drive/download.php?id=0d63fceb146bd3d3241f

https://linksclub.biz/drive/download.php?id=ef2565525573330627f9

http://www.indishare.me/ppzcgmt0nw0g

https://uptobox.com/zjawr7tnpe1n

https://bdupload.info/9chevpprszyx

 Bad Teacher
(2011) on IMDb

Post a Comment

0 Comments