+18 Your Highness 2011 x264 720p Esub BluRay Dual Audio English Hindi GOPISAHI


Format                         : Matroska
Format version                 : Version 4 / Version 2
File size                      : 773 MiB
Duration                       : 1 h 45 min
Overall bit rate               : 1 025 kb/s
Movie name                     : Your Highness 2011 GOPISAHI

Video
Format                         : AVC
Format/Info                    : Advanced Video Codec
Codec ID                       : V_MPEG4/ISO/AVC
Duration                       : 1 h 45 min
Bit rate                       : 895 kb/s
Width                          : 1 280 pixels
Height                         : 536 pixels
Display aspect ratio           : 2.40:1
Frame rate mode                : Constant
Frame rate                     : 23.976 (24000/1001) FPS
Color space                    : YUV
Chroma subsampling             : 4:2:0
Bit depth                      : 8 bits
Scan type                      : Progressive
Bits/(Pixel*Frame)             : 0.054
Stream size                    : 675 MiB (87%)
Writing library                : x264 core 115 r1995 c1e60b9

Audio #1
Format                         : AAC
Format/Info                    : Advanced Audio Codec
Duration                       : 1 h 45 min
Bit rate                       : 96.0 kb/s
Channel(s)                     : 6 channels
Channel positions              : Front: L C R, Side: L R, LFE
Sampling rate                  : 48.0 kHz
Frame rate                     : 46.875 FPS (1024 SPF)
Compression mode               : Lossy
Stream size                    : 72.4 MiB (9%)
Title                          : GOPISAHI
Language                       : Hindi

Audio #2
Format                         : AAC
Format/Info                    : Advanced Audio Codec
Duration                       : 1 h 45 min
Bit rate                       : 32.0 kb/s
Channel(s)                     : 2 channels
Channel positions              : Front: L R
Sampling rate                  : 48.0 kHz / 24.0 kHz
Frame rate                     : 23.438 FPS (1024 SPF)
Compression mode               : Lossy
Stream size                    : 24.1 MiB (3%)
Title                          : GOPISAHI
Language                       : English

Text
Language                       : English



TORRENT

MAGNET

http://1upload.pw/Download.php?url=Znh3NmRPR0ZlWERPVWdOVXpNQnBMM0pLVzM1R3JjTDlYZkpINlBVOEhaVjlCaXJHUHA1MmF4bDVPOTduVW42bA==

https://linksclub.biz/drive/download.php?id=ce53d124f3b7dbb6c9a2

https://linkstaker.bid/drive/download.php?id=02244ceb001fe170cced

https://megaup.net/5p5h/18_Your_Highness_2011_x264_720p_Esub_BluRay_Dual_Audio_English_Hindi_GOPISAHI.mkv

https://openload.co/f/syNdL90vTRM/Horrible%2520Bosses%25202011%2520EXTENDED%2520x264%2520720p%2520Esub%2520BluRay%2520Dual%2520Audio%2520English%2520Hindi%2520GOPISAHI.mkv.mp4

https://www.oboom.com/QK36CFD6

https://uploadfiles.pw/f8a3a7699000de3d

http://www.indishare.me/f4s52ygcruaz

http://www.filefactory.com/file/1gsrs0x1omkb/

https://bdupload.info/sgs3vgsri5xa

https://uptobox.com/fetz6xpely4v

http://www.mediafire.com/file/rd32fbcf307kb1s/18_Y_H_2011_.zip/file

 Your Highness
(2011) on IMDb

Post a Comment

0 Comments