Search

Bad Company 2002 x264 720p Esub HD Dual Audio English Hindi GOPISAHI

Format                         : Matroska
Format version                 : Version 4 / Version 2
File size                      : 827 MiB
Duration                       : 1 h 56 min
Overall bit rate               : 990 kb/s
Movie name                     : Bad Company 2002 GOPISAHI

Video
Format                         : AVC
Format/Info                    : Advanced Video Codec
Codec ID                       : V_MPEG4/ISO/AVC
Duration                       : 1 h 56 min
Bit rate                       : 799 kb/s
Width                          : 1 280 pixels
Height                         : 532 pixels
Display aspect ratio           : 2.40:1
Frame rate mode                : Constant
Frame rate                     : 25.000 FPS
Color space                    : YUV
Chroma subsampling             : 4:2:0
Bit depth                      : 8 bits
Scan type                      : Progressive
Bits/(Pixel*Frame)             : 0.047
Stream size                    : 667 MiB (81%)
Title                          : GOPISAHI
Writing library                : x264 core 155 r2901 7d0ff22

Audio #1
Format                         : AAC
Format/Info                    : Advanced Audio Codec
Duration                       : 1 h 51 min
Bit rate                       : 96.0 kb/s
Channel(s)                     : 1 channel
Channel positions              : Front: C
Sampling rate                  : 48.0 kHz
Frame rate                     : 46.875 FPS (1024 SPF)
Compression mode               : Lossy
Delay relative to video        : 45 ms
Stream size                    : 77.0 MiB (9%)
Title                          : GOPISAHI
Language                       : Hindi

Audio #2
Format                         : AAC
Format/Info                    : Advanced Audio Codec
Duration                       : 1 h 56 min
Bit rate                       : 96.0 kb/s
Channel(s)                     : 1 channel
Channel positions              : Front: C
Sampling rate                  : 48.0 kHz
Frame rate                     : 46.875 FPS (1024 SPF)
Compression mode               : Lossy
Delay relative to video        : -21 ms
Stream size                    : 80.2 MiB (10%)
Title                          : GOPISAHI
Language                       : English

Text
Language                       : English



TORRENT

MAGNET

http://1upload.pw/Download.php?url=Y2lqcEV5dXZVYnZoRzdZbmExbXNqSnhYdlRNNFpxakhhOTYvT3hmQ2ZpQkVSQ08wTHF4NVA4ZnhyWGZ2NVJSdQ==

https://linkstaker.bid/drive/download.php?id=026b58e10e56dd7f8b15

https://linksclub.biz/drive/download.php?id=76f172443c8fff53d958

https://my.pcloud.com/publink/show?code=XZgF217ZE4JCWVMNsSJxqvn6z0O16hETno4k

https://bdupload.info/jfkaij5h6a2k

https://uptobox.com/0qegokkv40ex

http://www.indishare.me/9vv64efli1mq

http://www.filefactory.com/file/65x9h7heoih9/

https://megaup.net/qp7M/Bad_Company_2002_x264_720p_Esub_HD_Dual_Audio_English_Hindi_GOPISAHI.mkv

https://openload.co/f/-HJylP1UXHc/Bad_Company_2002_x264_720p_Esub_HD_Dual_Audio_English_Hindi_GOPISAHI.mkv.mp4

https://www.oboom.com/CCJT0DE0

https://uploadfiles.pw/2aced406b066068f

http://www.mediafire.com/file/hqckf16dqni5p77/B_C_2002_.zip/file
 

 Bad Company
(2002) on IMDb

Post a Comment

0 Comments