Search

Bridesmaids 2011 x264 720p Esub BluRay Dual Audio English Hindi GOPISAHI


Format                         : Matroska
Format version                 : Version 4 / Version 2
File size                      : 731 MiB
Duration                       : 2 h 10 min
Overall bit rate               : 785 kb/s
Movie name                     : Bridesmaids 2011 GOPISAHI

Video
Format                         : AVC
Format/Info                    : Advanced Video Codec
Codec ID                       : V_MPEG4/ISO/AVC
Duration                       : 2 h 10 min
Bit rate                       : 718 kb/s
Width                          : 1 280 pixels
Height                         : 536 pixels
Display aspect ratio           : 2.40:1
Frame rate mode                : Constant
Frame rate                     : 23.976 (24000/1001) FPS
Color space                    : YUV
Chroma subsampling             : 4:2:0
Bit depth                      : 8 bits
Scan type                      : Progressive
Bits/(Pixel*Frame)             : 0.044
Stream size                    : 668 MiB (91%)
Title                          : GOPISAHI
Writing library                : x264 core 116 r2074 2641b9e

Audio #1
Format                         : AAC
Format/Info                    : Advanced Audio Codec
Duration                       : 2 h 10 min
Bit rate                       : 32.0 kb/s
Channel(s)                     : 2 channels
Channel positions              : Front: L R
Sampling rate                  : 48.0 kHz / 24.0 kHz
Frame rate                     : 23.438 FPS (1024 SPF)
Compression mode               : Lossy
Delay relative to video        : -125 ms
Stream size                    : 29.8 MiB (4%)
Title                          : GOPISAHI
Language                       : English

Audio #2
Format                         : AAC
Duration                       : 2 h 3 min
Bit rate                       : 35.0 kb/s
Channel(s)                     : 2 channels
Channel positions              : Front: L R
Sampling rate                  : 22.05 kHz / 11.025 kHz
Frame rate                     : 10.767 FPS (1024 SPF)
Compression mode               : Lossy
Delay relative to video        : -58 ms
Stream size                    : 31.0 MiB (4%)
Title                          : GOPISAHI
Language                       : Hindi

Text
Language                       : English



TORRENT

MAGNET

https://linkstaker.bid/drive/download.php?id=5d3a00b70aef2ef42f03

http://1upload.pw/Download.php?url=UTh1OHJiRjl0TWRJRyt1QjJuT1U4SkRuaGJrYXpNcUpaNHpvTFVZTDhNSWt1NVRiSDA4NnVlMTNhY05sM3U0YQ==

http://www.indishare.me/1v5z3ykhpvdz

https://uptobox.com/9l8tq4w116hd

https://bdupload.info/jd67xk2gg50d

https://www.oboom.com/AQ1ELD5L

http://www.mediafire.com/file/c0e3pv87d9pvb4e/Br_2011_.zip/file

https://megaup.net/5o8t/Bridesmaids_2011_x264_720p_Esub_BluRay_Dual_Audio_English_Hindi_GOPISAHI.mkv

http://www.filefactory.com/file/1suj834eyx0r/

https://openload.co/f/DGvfZlrsY98/Bridesmaids%25202011%2520x264%2520720p%2520Esub%2520BluRay%2520Dual%2520Audio%2520English%2520Hindi%2520GOPISAHI.mkv

https://uploadfiles.pw/0e0cf9a28fa4a0f0

 Bridesmaids
(2011) on IMDb


Post a Comment

0 Comments