Cars 2 2011 x264 720p Esub BluRay Dual Audio English Hindi GOPISAHI


Format                         : Matroska
Format version                 : Version 4 / Version 2
File size                      : 749 MiB
Duration                       : 1 h 47 min
Overall bit rate               : 979 kb/s
Movie name                     : Cars 2 2011 GOPISAHI

Video
Format                         : AVC
Format/Info                    : Advanced Video Codec
Codec ID                       : V_MPEG4/ISO/AVC
Duration                       : 1 h 47 min
Bit rate                       : 817 kb/s
Width                          : 1 280 pixels
Height                         : 536 pixels
Display aspect ratio           : 2.40:1
Frame rate mode                : Constant
Frame rate                     : 23.976 (24000/1001) FPS
Color space                    : YUV
Chroma subsampling             : 4:2:0
Bit depth                      : 8 bits
Scan type                      : Progressive
Bits/(Pixel*Frame)             : 0.050
Stream size                    : 625 MiB (83%)
Title                          : GOPISAHI
Writing library                : x264 core 114 r1924 08d04a4

Audio #1
Format                         : AAC
Duration                       : 1 h 47 min
Bit rate                       : 128 kb/s
Channel(s)                     : 2 channels
Channel positions              : Front: L R
Sampling rate                  : 48.0 kHz / 24.0 kHz
Frame rate                     : 23.438 FPS (1024 SPF)
Compression mode               : Lossy
Delay relative to video        : 31 ms
Stream size                    : 97.9 MiB (13%)
Title                          : GOPISAHI
Language                       : Hindi

Audio #2
Format                         : AAC
Duration                       : 1 h 47 min
Bit rate                       : 32.0 kb/s
Channel(s)                     : 2 channels
Channel positions              : Front: L R
Sampling rate                  : 48.0 kHz / 24.0 kHz
Frame rate                     : 23.438 FPS (1024 SPF)
Compression mode               : Lossy
Stream size                    : 24.5 MiB (3%)
Title                          : GOPISAHI
Language                       : English

Text
Language                       : English



TORRENT

MAGNET

https://www.oboom.com/Y5IJN59Y

https://uploadfiles.pw/482f080e543c6d17

http://1upload.pw/Download.php?url=eC9IS2xwdVovd0FuY050dkVPUjBqSFR6R2NUMFhWYkNxbU1LZ29kbjJ1YlZWVFEzNW9RTTR1d095OVJTVjJHcw==

https://linkstaker.bid/drive/download.php?id=db25baeb44758d0d7bc8

https://linksclub.biz/drive/download.php?id=d094a925d6c8f28ed5f5

http://www.indishare.me/5qqjpxlicsew

https://uptobox.com/6pir91ogswf2

https://bdupload.info/110mxha11ysr

https://megaup.net/9ztL/Cars_2_2011_x264_720p_Esub_BluRay_Dual_Audio_English_Hindi_GOPISAHI.mkv

http://www.filefactory.com/file/t2ncl2xczu7/



 Cars 2
(2011) on IMDb

Post a Comment

0 Comments