Crazy Stupid Love 2011 x264 720p Esub BluRay Dual Audio English Hindi GOPISAHI


Format                         : Matroska
Format version                 : Version 4 / Version 2
File size                      : 806 MiB
Duration                       : 1 h 58 min
Overall bit rate               : 954 kb/s
Movie name                     : Crazy Stupid Love 2011 GOPISAHI

Video
Format                         : AVC
Format/Info                    : Advanced Video Codec
Codec ID                       : V_MPEG4/ISO/AVC
Duration                       : 1 h 58 min
Bit rate                       : 795 kb/s
Width                          : 1 280 pixels
Height                         : 536 pixels
Display aspect ratio           : 2.40:1
Frame rate mode                : Constant
Frame rate                     : 23.976 (24000/1001) FPS
Color space                    : YUV
Chroma subsampling             : 4:2:0
Bit depth                      : 8 bits
Scan type                      : Progressive
Bits/(Pixel*Frame)             : 0.048
Stream size                    : 672 MiB (83%)
Title                          : GOPISAHI
Writing library                : x264 core 116 r2074 2641b9e

Audio #1
Format                         : AAC
Duration                       : 1 h 58 min
Bit rate                       : 125 kb/s
Channel(s)                     : 2 channels
Channel positions              : Front: L R
Sampling rate                  : 48.0 kHz
Frame rate                     : 46.875 FPS (1024 SPF)
Compression mode               : Lossy
Delay relative to video        : 15 ms
Stream size                    : 105 MiB (13%)
Title                          : GOPISAHI
Language                       : Hindi

Audio #2
Format                         : AAC
Duration                       : 1 h 58 min
Bit rate                       : 32.0 kb/s
Channel(s)                     : 2 channels
Channel positions              : Front: L R
Sampling rate                  : 48.0 kHz / 24.0 kHz
Frame rate                     : 23.438 FPS (1024 SPF)
Compression mode               : Lossy
Stream size                    : 27.0 MiB (3%)
Title                          : GOPISAHI
Language                       : English

Text
Language                       : English



TORRENT

MAGNET

http://www.indishare.me/msqgdeva5vpm

https://uploadfiles.pw/69ffd3eca3e0cbf8

https://uptobox.com/6gbxf8vizlqd

https://bdupload.info/g8azpe02585s

https://www.oboom.com/NO91QFOC

https://openload.co/f/0_B6YU4_uF8/Crazy%2520Stupid%2520Love%25202011%2520x264%2520720p%2520Esub%2520BluRay%2520Dual%2520Audio%2520English%2520Hindi%2520GOPISAHI.mkv.mp4

https://megaup.net/5nkm/Crazy_Stupid_Love_2011_x264_720p_Esub_BluRay_Dual_Audio_English_Hindi_GOPISAHI.mkv

http://www.filefactory.com/file/2wivcgv3llq3/

http://1upload.pw/Download.php?url=aENXYTRpWUp6YXZDS00wQ1JIcW0wMEc1MitrU1BCZy9odUdPaFJDTWZQaFh0SUFKdS8rVGk5N0RycE9uZWE5UA==

https://linkstaker.bid/drive/download.php?id=9e915fa0a75e8a269bf3

https://linksclub.biz/drive/download.php?id=95e4a88d56920b756d94

 Crazy Stupid Love
(2011) on IMDb

Post a Comment

1 Comments

  1. Tom and Jerry Robin hood and his merry mouse 2012
    https://mega.nz/#!qCRBUKSL!NTmVtLV4sVPhf6ztoKTFU4jwl0APsEhFh6lOF9Eqv2w

    https://1337x.st/torrent/448458/Tom-And-Jerry-Robin-Hood-And-His-Merry-Mouse-2012-BluRay-720p-English-Invisible-HSRG-HKRG/

    tom and jerry in shiver me whiskers 2006
    https://mega.nz/#!WWJnSY6J!Qyt07pLixq_nibi7ZshZ74EN7Di_XuEhx70Trc3dMzI

    Upload with hindi and eng 720p

    Tom and jerry the magic ring 2002

    https://mega.nz/#!bHBjiYqb!w2S_F8ug8xJDvmjXLZZHIsAn725o-FT3rV-6TXfNjrI

    Video from tamilrockers

    ReplyDelete