Cross 2011 Esub DVD Dual Audio English Hindi GOPISAHI


Format                         : Matroska
Format version                 : Version 4 / Version 2
File size                      : 371 MiB
Duration                       : 1 h 44 min
Overall bit rate               : 494 kb/s
Movie name                     : Cross 2011 GOPISAHI

Video
ID                             : 1
Format                         : AVC
Format/Info                    : Advanced Video Codec
Format profile                 : [email protected]
Format settings                : CABAC / 4 Ref Frames
Format settings, CABAC         : Yes
Format settings, ReFrames      : 4 frames
Codec ID                       : V_MPEG4/ISO/AVC
Duration                       : 1 h 44 min
Bit rate                       : 300 kb/s
Width                          : 720 pixels
Height                         : 336 pixels
Display aspect ratio           : 2.143
Frame rate mode                : Constant
Frame rate                     : 29.970 (30000/1001) FPS
Color space                    : YUV
Chroma subsampling             : 4:2:0
Bit depth                      : 8 bits
Scan type                      : Progressive
Bits/(Pixel*Frame)             : 0.041
Stream size                    : 224 MiB (60%)
Title                          : GOPISAHI
Writing library                : x264 core 130 r2273 b3065e6
Language                       : English

Audio #1
Format                         : AAC
Duration                       : 1 h 44 min
Bit rate                       : 96.0 kb/s
Channel(s)                     : 2 channels
Channel positions              : Front: L R
Sampling rate                  : 48.0 kHz
Frame rate                     : 46.875 FPS (1024 SPF)
Compression mode               : Lossy
Stream size                    : 72.2 MiB (19%)
Title                          : GOPISAHI
Language                       : Hindi

Audio #2
Format                         : AAC
Format/Info                    : Advanced Audio Codec
Duration                       : 1 h 44 min
Bit rate                       : 96.0 kb/s
Channel(s)                     : 2 channels
Channel positions              : Front: L R
Sampling rate                  : 48.0 kHz
Frame rate                     : 46.875 FPS (1024 SPF)
Compression mode               : Lossy
Stream size                    : 72.4 MiB (20%)
Title                          : GOPISAHI
Language                       : English

 Text
Language                       : English



 Cross
(2011) on IMDb

Post a Comment

2 Comments

  1. Please upload this movie with tamilrockers source this source have watermark I request this movie from week
    https://mega.nz/#!qHI3RQQT!bw43vbZq6SJLm3LLKw31_3SkQOiOgGgCmnBeYwc6Vrc


    https://1337x.st/torrent/3049166/Tom-Jerry-The-Movie-1992-DVDRip-Tamil-Eng-x264-750MB-TEAMTR/

    ReplyDelete