Search

Drive Angry 2011 x264 720p Esub BluRay Dual Audio English Hindi GOPISAHI


Format                         : Matroska
Format version                 : Version 4 / Version 2
File size                      : 768 MiB
Duration                       : 1 h 44 min
Overall bit rate               : 1 027 kb/s
Movie name                     : Drive Angry 2011 GOPISAHI

Video
Format                         : AVC
Format/Info                    : Advanced Video Codec
Codec ID                       : V_MPEG4/ISO/AVC
Duration                       : 1 h 44 min
Bit rate                       : 899 kb/s
Width                          : 1 280 pixels
Height                         : 720 pixels
Display aspect ratio           : 16:9
Frame rate mode                : Constant
Frame rate                     : 23.976 (24000/1001) FPS
Color space                    : YUV
Chroma subsampling             : 4:2:0
Bit depth                      : 8 bits
Scan type                      : Progressive
Bits/(Pixel*Frame)             : 0.041
Stream size                    : 672 MiB (88%)
Title                          : GOPISAHI
Writing library                : x264 core 114 r1924 08d04a4

Audio #1
Format                         : AAC
Format/Info                    : Advanced Audio Codec
Duration                       : 1 h 44 min
Bit rate                       : 93.6 kb/s
Channel(s)                     : 2 channels
Channel positions              : Front: L R
Sampling rate                  : 44.1 kHz
Frame rate                     : 43.066 FPS (1024 SPF)
Compression mode               : Lossy
Stream size                    : 69.8 MiB (9%)
Title                          : GOPI SAHI
Language                       : Hindi

Audio #2
Format                         : AAC
Duration                       : 1 h 44 min
Bit rate                       : 32.0 kb/s
Channel(s)                     : 2 channels
Channel positions              : Front: L R
Sampling rate                  : 48.0 kHz / 24.0 kHz
Frame rate                     : 23.438 FPS (1024 SPF)
Compression mode               : Lossy
Stream size                    : 23.9 MiB (3%)
Title                          : GOPISAHI
Language                       : English

Text
Language                       : English



TORRENT

MAGNET 

http://1upload.pw/Download.php?url=Qmt1eHJNdzZyMlZ1aUNYTTBLdVNTL2lTVVFtbjNmNUYxeFpxa1pEUWtqZE1QeXJKMXJNVm5FbGxLTVlZcldMZw==

https://linkstaker.bid/drive/download.php?id=4fb29e7be8fa77f0d19f

https://linksclub.biz/drive/download.php?id=2a675a5fbcf1759ec822



http://www.indishare.me/lv19n443li32

https://www.oboom.com/HR3YDKNV

https://uptobox.com/24m8bwj3uduf

https://bdupload.info/1lhvo7rq60ia

https://openload.co/f/U8SEpGZTMcY/Drive%2520Angry%25202011%2520x264%2520720p%2520Esub%2520BluRay%2520Dual%2520Audio%2520English%2520Hindi%2520GOPISAHI.mkv

http://www.filefactory.com/file/1kugh0i6m6jl/

https://uploadfiles.pw/a62703c024eb7c1c

https://megaup.net/m9oA/Drive_Angry_2011_x264_720p_Esub_BluRay_Dual_Audio_English_Hindi_GOPISAHI.mkv

 Drive Angry
(2011) on IMDb

Post a Comment

0 Comments