Dylan Dog 2010 x264 1080p BD M Audio 5.1 Italian English Hindi GOPISAHI


Format                         : Matroska
Format version                 : Version 4 / Version 2
File size                      : 1.49 GiB
Duration                       : 1 h 43 min
Overall bit rate               : 2 057 kb/s
Movie name                     : Dylan Dog 2010 GOPISAHI

Video
Format                         : AVC
Codec ID                       : V_MPEG4/ISO/AVC
Duration                       : 1 h 43 min
Bit rate                       : 1 499 kb/s
Width                          : 1 916 pixels
Height                         : 816 pixels
Display aspect ratio           : 2.35:1
Frame rate mode                : Constant
Frame rate                     : 25.000 FPS
Color space                    : YUV
Chroma subsampling             : 4:2:0
Bit depth                      : 8 bits
Scan type                      : Progressive
Bits/(Pixel*Frame)             : 0.038
Stream size                    : 1.08 GiB (73%)
Title                          : GOPISAHI
Writing library                : x264 core 155 r2901 7d0ff22

Audio #1
Format                         : AAC
Duration                       : 1 h 37 min
Bit rate                       : 192 kb/s
Channel(s)                     : 6 channels
Channel positions              : Front: L C R, Side: L R, LFE
Sampling rate                  : 48.0 kHz
Frame rate                     : 46.875 FPS (1024 SPF)
Compression mode               : Lossy
Delay relative to video        : 11 s 0 ms
Stream size                    : 132 MiB (9%)
Title                          : GOPISAHI
Language                       : Hindi

Audio #2
Format                         : AAC
Duration                       : 1 h 43 min
Bit rate                       : 192 kb/s
Channel(s)                     : 6 channels
Channel positions              : Front: L C R, Side: L R, LFE
Sampling rate                  : 48.0 kHz
Frame rate                     : 46.875 FPS (1024 SPF)
Compression mode               : Lossy
Delay relative to video        : 80 ms
Stream size                    : 142 MiB (9%)
Title                          : GOPISAHI
Language                       : Italian

Audio #3
Format                         : AAC
Duration                       : 1 h 43 min
Bit rate                       : 192 kb/s
Channel(s)                     : 6 channels
Channel positions              : Front: L C R, Side: L R, LFE
Sampling rate                  : 48.0 kHz
Frame rate                     : 46.875 FPS (1024 SPF)
Compression mode               : Lossy
Stream size                    : 140 MiB (9%)
Title                          : GOPISAHI
Language                       : English


Text
Language                       : Italian






 Dylan Dog: Dead of Night
(2010) on IMDb


Post a Comment

3 Comments

  1. Please complete my previous request of Tom and Jerry movie ReEncode the movie with blu-ray version

    ReplyDelete
  2. https://mega.nz/#!qHI3RQQT!bw43vbZq6SJLm3LLKw31_3SkQOiOgGgCmnBeYwc6Vrc
    Rencode this movie with this source remove tamil audio only hindi English
    https://1337x.st/torrent/3049166/Tom-Jerry-The-Movie-1992-DVDRip-Tamil-Eng-x264-750MB-TEAMTR/

    ReplyDelete
  3. I request this version from one week

    ReplyDelete