Elephant White 2011 x264 720p Esub BluRay Dual Audio English Hindi GOPISAHI


Format                         : Matroska
Format version                 : Version 4 / Version 2
File size                      : 651 MiB
Duration                       : 1 h 31 min
Overall bit rate               : 994 kb/s
Movie name                     : Elephant White 2011 GOPISAH

Video
Format                         : AVC
Format/Info                    : Advanced Video Codec
Codec ID                       : V_MPEG4/ISO/AVC
Duration                       : 1 h 31 min
Bit rate                       : 799 kb/s
Width                          : 1 280 pixels
Height                         : 546 pixels
Display aspect ratio           : 2.35:1
Frame rate mode                : Constant
Frame rate                     : 23.976 (24000/1001) FPS
Color space                    : YUV
Chroma subsampling             : 4:2:0
Bit depth                      : 8 bits
Scan type                      : Progressive
Bits/(Pixel*Frame)             : 0.048
Stream size                    : 523 MiB (80%)
Title                          : GOPISAH
Writing library                : x264 core 155 r2901 7d0ff22

Audio #1
Format                         : AAC
Duration                       : 1 h 31 min
Bit rate                       : 96.0 kb/s
Channel(s)                     : 2 channels
Channel positions              : Front: L R
Sampling rate                  : 48.0 kHz
Frame rate                     : 46.875 FPS (1024 SPF)
Compression mode               : Lossy
Delay relative to video        : -21 ms
Stream size                    : 62.9 MiB (10%)
Title                          : GOPISAH
Language                       : Hindi

Audio #2
Format                         : AAC
Duration                       : 1 h 31 min
Bit rate                       : 96.0 kb/s
Channel(s)                     : 2 channels
Channel positions              : Front: L R
Sampling rate                  : 48.0 kHz
Frame rate                     : 46.875 FPS (1024 SPF)
Compression mode               : Lossy
Delay relative to video        : -21 ms
Stream size                    : 62.9 MiB (10%)
Title                          : GOPISAH
Language                       : English

Text
Language                       : English



TORRENT

MAGNET 

 http://1upload.pw/Download.php?url=bUtHSENVdzNkZ1hWZ2hWbFBYaTFYNEpDSktsY0xiWStyUkYxM1FpcWg5blgzS3l3alhSRlNnRUFaR0hNTE92RA==

https://linkstaker.bid/drive/download.php?id=7c91d59bccf9a1fe615a

https://linksclub.biz/drive/download.php?id=c1ff1bc6f154cbef8353

http://www.indishare.me/xy3zh6x1tqou

https://bdupload.info/8lsiyn6dhl0e

http://www.filefactory.com/file/6suo68w90eil/

https://uptobox.com/t186fw6ig1tf

https://uploadfiles.pw/64d3fdcff35b671a

https://openload.co/f/4UJ7qDta65I/Elephant%2520White%25202011%2520x264%2520720p%2520Esub%2520BluRay%2520Dual%2520Audio%2520English%2520Hindi%2520GOPISAHI.mkv

https://megaup.net/5mwi/Elephant_White_2011_x264_720p_Esub_BluRay_Dual_Audio_English_Hindi_GOPISAHI.mkv

 Elephant White
(2011) on IMDb

Post a Comment

2 Comments

  1. Tom and Jerry Robin hood and his merry mouse 2012
    https://mega.nz/#!qCRBUKSL!NTmVtLV4sVPhf6ztoKTFU4jwl0APsEhFh6lOF9Eqv2w

    https://1337x.st/torrent/448458/Tom-And-Jerry-Robin-Hood-And-His-Merry-Mouse-2012-BluRay-720p-English-Invisible-HSRG-HKRG/

    tom and jerry in shiver me whiskers 2006
    https://mega.nz/#!WWJnSY6J!Qyt07pLixq_nibi7ZshZ74EN7Di_XuEhx70Trc3dMzI

    Upload with hindi and eng 720p

    Tom and jerry the magic ring 2002

    https://mega.nz/#!bHBjiYqb!w2S_F8ug8xJDvmjXLZZHIsAn725o-FT3rV-6TXfNjrI

    Video from tamilrockers

    ReplyDelete
  2. ReEncode all these movie with best quality

    ReplyDelete