Flying Swords Of Dragon Gate 2011 x264 720p Esub BluRay Dual Audio English Hindi GOPISAHI


Format                         : Matroska
Format version                 : Version 4 / Version 2
File size                      : 996 MiB
Duration                       : 1 h 58 min
Overall bit rate               : 1 177 kb/s
Movie name                     : Flying Swords Of Dragon Gate 2011 GOPISAHI

Video
Format                         : AVC
Format/Info                    : Advanced Video Codec
Codec ID                       : V_MPEG4/ISO/AVC
Duration                       : 1 h 58 min
Bit rate                       : 847 kb/s
Width                          : 1 280 pixels
Height                         : 534 pixels
Display aspect ratio           : 2.40:1
Frame rate mode                : Constant
Frame rate                     : 23.976 (24000/1001) FPS
Color space                    : YUV
Chroma subsampling             : 4:2:0
Bit depth                      : 8 bits
Scan type                      : Progressive
Bits/(Pixel*Frame)             : 0.052
Stream size                    : 716 MiB (72%)
Title                          : GOPISAHI
Writing library                : x264 core 135 r2345 f0c1c53

Audio #1
ID                             : 2
Format                         : AAC
Format/Info                    : Advanced Audio Codec
Format profile                 : HE-AAC / LC
Format settings                : Explicit
Codec ID                       : A_AAC-2
Duration                       : 1 h 58 min
Bit rate                       : 128 kb/s
Channel(s)                     : 2 channels
Channel positions              : Front: L R
Sampling rate                  : 48.0 kHz / 24.0 kHz
Frame rate                     : 23.438 FPS (1024 SPF)
Compression mode               : Lossy
Delay relative to video        : 31 ms
Stream size                    : 108 MiB (11%)
Title                          : GOPISAHI
Language                       : Hindi

Audio #2
Format                         : AAC
Duration                       : 1 h 58 min
Bit rate                       : 128 kb/s
Channel(s)                     : 2 channels
Channel positions              : Front: L R
Sampling rate                  : 48.0 kHz / 24.0 kHz
Frame rate                     : 23.438 FPS (1024 SPF)
Compression mode               : Lossy
Delay relative to video        : 31 ms
Stream size                    : 108 MiB (11%)
Title                          : GOPISAHI
Language                       : English

Audio #3
Format                         : AAC
Codec ID                       : A_AAC-2
Duration                       : 1 h 58 min
Bit rate                       : 48.0 kb/s
Channel(s)                     : 2 channels
Channel positions              : Front: L R
Sampling rate                  : 22.05 kHz / 11.025 kHz
Frame rate                     : 10.767 FPS (1024 SPF)
Compression mode               : Lossy
Delay relative to video        : 67 ms
Stream size                    : 40.6 MiB (4%)
Title                          : GOPISAHI
Language                       : Chinese

Text
Format                         : PGS
Muxing mode                    : zlib
Codec ID                       : S_HDMV/PGS
Codec ID/Info                  : Picture based subtitle format used on BDs/HD-DVDs
Duration                       : 1 h 57 min
Language                       : English



TORRENT

MAGNET

https://linkstaker.bid/drive/download.php?id=4ca234066280c915c541

https://linksclub.biz/drive/download.php?id=9bd87428f0db0cf699d0

http://1upload.pw/Download.php?url=QmRwam5zWWlvemtOaDNoYlhaalltT3JxdjFPWnc2V0E4UUhYU3hISlgvZWE3VlluaGNBOThGb1VWNGM5RFBsUw==

https://uploadfiles.pw/926e30207ff78ba5

https://uptobox.com/gspgq9qsrjz8

https://bdupload.info/b1raaojm4150

https://www.oboom.com/3WCDU14R

http://www.indishare.me/0ol1dub3ct8k

https://openload.co/f/kJLut7syFz8/Flying%2520Swords%2520Of%2520Dragon%2520Gate%25202011%2520x264%2520720p%2520Esub%2520BluRay%2520Dual%2520Audio%2520English%2520Hindi%2520GOPISAHI.mkv

http://www.filefactory.com/file/2jme5tcabyjt/

https://megaup.net/9v8t/Flying_Swords_Of_Dragon_Gate_2011_x264_720p_Esub_BluRay_Dual_Audio_English_Hindi_GOPISAHI.mkv

 Flying Swords of Dragon Gate
(2011) on IMDb

Post a Comment

0 Comments