Search

Friends with Benefits 2011 x264 720p Esub BluRay Dual Audio English Hindi GOPISAHI


Format                         : Matroska
Format version                 : Version 4 / Version 2
File size                      : 800 MiB
Duration                       : 1 h 49 min
Overall bit rate               : 1 022 kb/s
Movie name                     : Friends with Benefits 2011 GOPISAHI

Video
Format                         : AVC
Format/Info                    : Advanced Video Codec
Codec ID                       : V_MPEG4/ISO/AVC
Duration                       : 1 h 49 min
Bit rate                       : 859 kb/s
Width                          : 1 280 pixels
Height                         : 536 pixels
Display aspect ratio           : 2.40:1
Frame rate mode                : Constant
Frame rate                     : 23.976 (24000/1001) FPS
Color space                    : YUV
Chroma subsampling             : 4:2:0
Bit depth                      : 8 bits
Scan type                      : Progressive
Bits/(Pixel*Frame)             : 0.052
Stream size                    : 672 MiB (84%)
Title                          : GOPISAHI
Writing library                : x264 core 114 r1924 08d04a4

Audio #1
Format                         : AAC
Duration                       : 1 h 49 min
Bit rate                       : 128 kb/s
Channel(s)                     : 2 channels
Channel positions              : Front: L R
Sampling rate                  : 48.0 kHz
Frame rate                     : 46.875 FPS (1024 SPF)
Compression mode               : Lossy
Delay relative to video        : -83 ms
Stream size                    : 100 MiB (13%)
Title                          : GOPISAHI
Language                       : Hindi

Audio #2
Format                         : AAC
Format/Info                    : Advanced Audio Codec
Duration                       : 1 h 49 min
Bit rate                       : 32.0 kb/s
Channel(s)                     : 2 channels
Channel positions              : Front: L R
Sampling rate                  : 48.0 kHz / 24.0 kHz
Frame rate                     : 23.438 FPS (1024 SPF)
Compression mode               : Lossy
Delay relative to video        : -83 ms
Stream size                    : 25.0 MiB (3%)
Title                          : GOPISAHI
Language                       : English

Text



TORRENT

MAGNET

https://linkstaker.bid/drive/download.php?id=ba8b696c824f7783faea

https://linksclub.biz/drive/download.php?id=d8ffbd4b054da07bc6a2

http://1upload.pw/Download.php?url=ZXhZaGJBbW40dmRscExTenNuZnZDUGNGci9scnd3aWJab0VlVElEOVl6d3IwbHpWKy9ZeVdxdFRiNVJzaGI3Sw==

http://www.indishare.me/xn9pjpxrmrv4

https://bdupload.info/ox10phq62ngd

https://uptobox.com/dukx9so8ezo5

https://openload.co/f/OuV_VF1kQ7I/Friends%2520with%2520Benefits%25202011%2520x264%2520720p%2520Esub%2520BluRay%2520Dual%2520Audio%2520English%2520Hindi%2520GOPISAHI.mkv.mp4

http://www.filefactory.com/file/6g2jsusppnhr/

https://uploadfiles.pw/ad053962af51a79f


https://megaup.net/hXe2/Friends_with_Benefits_2011_x264_720p_Esub_BluRay_Dual_Audio_English_Hindi_GOPISAHI.mkv

 Friends with Benefits
(2011) on IMDb

Post a Comment

0 Comments