Search

Hope Aur Hum 2018 x264 720p HD Esub Hindi GOPISAHI

Format                         : Matroska
Format version                 : Version 4 / Version 2
File size                      : 472 MiB
Duration                       : 1 h 34 min
Overall bit rate               : 697 kb/s
Movie name                     : Hope Aur Hum 2018 GOPISAHI

Video
Format                         : AVC
Format/Info                    : Advanced Video Codec
Codec ID                       : V_MPEG4/ISO/AVC
Duration                       : 1 h 34 min
Bit rate                       : 599 kb/s
Width                          : 1 280 pixels
Height                         : 480 pixels
Display aspect ratio           : 2.667
Frame rate mode                : Constant
Frame rate                     : 24.000 FPS
Color space                    : YUV
Chroma subsampling             : 4:2:0
Bit depth                      : 8 bits
Scan type                      : Progressive
Bits/(Pixel*Frame)             : 0.041
Stream size                    : 406 MiB (86%)
Title                          : GOPISAHI
Writing library                : x264 core 155 r2901 7d0ff22

Audio
Format                         : AAC
Format/Info                    : Advanced Audio Codec
Duration                       : 1 h 34 min
Bit rate                       : 96.0 kb/s
Channel(s)                     : 2 channels
Channel positions              : Front: L R
Sampling rate                  : 48.0 kHz
Frame rate                     : 46.875 FPS (1024 SPF)
Compression mode               : Lossy
Delay relative to video        : -62 ms
Stream size                    : 65.0 MiB (14%)
Title                          : GOPISAHI
Language                       : Hindi

Text
Language                       : English



TORRENT

MAGNET

http://1upload.pw/Download.php?url=aUltZm5YaE50UFREWlRGQ2w4OW9HcUFML1RvUUV3dnp2YVdSNS9DbnlYNkp5U0laR2FueTBRbzl1TzNHdTExeQ==

https://linkstaker.bid/drive/download.php?id=35149a1b32a4f3752d10

https://linksclub.biz/drive/download.php?id=f8a010925efb845d837e

https://www.oboom.com/65NLXHJR

http://www.indishare.me/ygpzijrfn9ia

https://openload.co/f/k8JHv40kDcQ/Hope%2520Aur%2520Hum%25202018%2520x264%2520720p%2520HD%2520Esub%2520Hindi%2520GOPISAHI.mkv.mp4

https://bdupload.info/0znig41s6xyc

https://uptobox.com/3frinrd7sn1x

https://megaup.net/5l64/Hope_Aur_Hum_2018_x264_720p_HD_Esub_Hindi_GOPISAHI.mkv

https://uploadfiles.pw/d869ddf2af7f57d6

https://cloudvideo.tv/dl?op=download_orig&id=5wslgycqojo4&mode=n&hash=69763-80-211-1536138420-8375a711c84dbddb1a51fb292ff70bce

http://www.filefactory.com/file/7l08bjpstuk3/

http://www.mediafire.com/file/m6vqh9x4f97iies/H_A_H_2018_.zip/file

 Hope Aur Hum
(2018) on IMDb

Post a Comment

0 Comments