I Am Number Four 2011 x264 720p Esub BluRay Dual Audio English Hindi GOPISAHI


Format                         : Matroska
Format version                 : Version 4 / Version 2
File size                      : 979 MiB
Duration                       : 1 h 49 min
Overall bit rate               : 1 248 kb/s
Movie name                     : I Am Number Four 2011 GOPISAHI

Video
Format                         : AVC
Format/Info                    : Advanced Video Codec
Codec ID                       : V_MPEG4/ISO/AVC
Duration                       : 1 h 49 min
Bit rate                       : 1 050 kb/s
Width                          : 1 280 pixels
Height                         : 692 pixels
Display aspect ratio           : 1.85:1
Frame rate mode                : Constant
Frame rate                     : 23.976 (24000/1001) FPS
Color space                    : YUV
Chroma subsampling             : 4:2:0
Bit depth                      : 8 bits
Scan type                      : Progressive
Bits/(Pixel*Frame)             : 0.049
Stream size                    : 823 MiB (84%)
Title                          : GOPISAHI
Writing library                : x264 core 130 r2273 b3065e6

Audio #1
Format                         : AAC
Duration                       : 1 h 49 min
Bit rate                       : 98.9 kb/s
Channel(s)                     : 6 channels
Channel positions              : Front: L C R, Side: L R, LFE
Sampling rate                  : 48.0 kHz
Frame rate                     : 46.875 FPS (1024 SPF)
Compression mode               : Lossy
Stream size                    : 77.6 MiB (8%)
Title                          : GOPISAHI
Language                       : Hindi

Audio #2
Format                         : AAC
Duration                       : 1 h 49 min
Bit rate                       : 96.0 kb/s
Channel(s)                     : 6 channels
Channel positions              : Front: L C R, Side: L R, LFE
Sampling rate                  : 48.0 kHz
Frame rate                     : 46.875 FPS (1024 SPF)
Compression mode               : Lossy
Stream size                    : 76.6 MiB (8%)
Title                          : GOPISAHI
Language                       : English

Text
Language                       : English



TORRENT

MAGNET

http://1upload.pw/Download.php?url=aEtHNlZaZTNFTldqNENhSEJlOTZWWUtmU0tSUzRreUpXK0ZURWxCZFdUYURXSFpLTGNLN3lXQndsY05GYzBBYg==

https://linksclub.biz/drive/download.php?id=0e0582c0cec322ac234e

https://linkstaker.bid/drive/download.php?id=c3c39cfc0154e1118612

http://www.mediafire.com/file/oznooyybzbbuqjj/I__N_F_2011_.zip/file

https://megaup.net/hZxZ/I_Am_Number_Four_2011_x264_720p_Esub_BluRay_Dual_Audio_English_Hindi_GOPISAHI.mkv

http://www.indishare.me/ddwlqoh5k98e

https://bdupload.info/uqvghv5w8aff

https://uptobox.com/mz3sqsju5as2

https://www.oboom.com/CGXV7U3H

https://openload.co/f/0wm27saILdo/I_Am_Number_Four_2011_x264_720p_Esub_BluRay_Dual_Audio_English_Hindi_GOPISAHI.mkv.mp4

http://www.filefactory.com/file/3a8cmctffb7r/

https://uploadfiles.pw/a170e231f4b3588c

 I Am Number Four
(2011) on IMDb

Post a Comment

0 Comments