Search

Immortals 2011 x264 720p Esub BluRay Dual Audio English Hindi GOPISAHI


Format                         : Matroska
Format version                 : Version 4 / Version 2
File size                      : 926 MiB
Duration                       : 1 h 50 min
Overall bit rate mode          : Variable
Overall bit rate               : 1 172 kb/s
Movie name                     : Immortals 2011 GOPISAHI

Video
Format                         : AVC
Format/Info                    : Advanced Video Codec
Codec ID                       : V_MPEG4/ISO/AVC
Duration                       : 1 h 50 min
Bit rate mode                  : Variable
Bit rate                       : 913 kb/s
Maximum bit rate               : 25.0 Mb/s
Width                          : 1 280 pixels
Height                         : 692 pixels
Display aspect ratio           : 1.85:1
Frame rate mode                : Constant
Frame rate                     : 23.976 (24000/1001) FPS
Color space                    : YUV
Chroma subsampling             : 4:2:0
Bit depth                      : 8 bits
Scan type                      : Progressive
Bits/(Pixel*Frame)             : 0.043
Stream size                    : 721 MiB (78%)
Title                          : GOPISAHI
Writing library                : x264 core 120 r2120 0c7dab9

Audio #1
Format                         : AAC
Format/Info                    : Advanced Audio Codec
Duration                       : 1 h 50 min
Bit rate                       : 96.0 kb/s
Channel(s)                     : 2 channels
Channel positions              : Front: L R
Sampling rate                  : 48.0 kHz
Frame rate                     : 46.875 FPS (1024 SPF)
Compression mode               : Lossy
Stream size                    : 76.0 MiB (8%)
Title                          : GOPISAHI
Language                       : Hindi

Audio #2
Format                         : AAC
Format/Info                    : Advanced Audio Codec
Duration                       : 1 h 50 min
Bit rate                       : 161 kb/s
Channel(s)                     : 2 channels
Channel positions              : Front: L R
Sampling rate                  : 48.0 kHz
Frame rate                     : 46.875 FPS (1024 SPF)
Compression mode               : Lossy
Stream size                    : 127 MiB (14%)
Title                          : GOPISAHI
Language                       : English

Text
Language                       : English



TORRENT

MAGNET

https://my.pcloud.com/publink/show?code=XZX1b17ZpaJeQ3QgD7BLazeS5ct3apIs56tX

http://www.mediafire.com/file/oqdb37nrwh7wydp/I_2011_.zip/file

http://1upload.pw/Download.php?url=NVJVdXhjdDBFQ1VZVFNZRnRFN09tOFE4MCthQWlVRlFSYXhOS2l3OXBtajRMbDlzQ1hzaUpZcVhDdkpTN0RSbA==

https://linksclub.biz/drive/download.php?id=151187efd8d4707a1ddf

https://linkstaker.bid/drive/download.php?id=d15335a3e63833e1421f

 http://www.indishare.me/njxvx1btrmit

https://bdupload.info/tv1cxblcicrm

https://uptobox.com/kwck0e1zi9uq

https://uploadfiles.pw/5d32bdfa8b071c04

https://www.oboom.com/BKX42RZJ

http://www.filefactory.com/file/3xao9si4jt9/

https://megaup.net/i0dn/Immortals_2011_x264_720p_Esub_BluRay_Dual_Audio_English_Hindi_GOPISAHI.mkv

https://openload.co/f/2Np5KYOWaRk/Immortals%25202011%2520x264%2520720p%2520Esub%2520BluRay%2520Dual%2520Audio%2520English%2520Hindi%2520GOPISAHI.mkv

 Immortals
(2011) on IMDb


Post a Comment

0 Comments