Search

Johnny English Reborn 2011 x264 720p Esub BluRay Dual Audio English Hindi GOPISAHI


Format                         : Matroska
Format version                 : Version 4 / Version 2
File size                      : 763 MiB
Duration                       : 1 h 41 min
Overall bit rate               : 1 052 kb/s
Movie name                     : Johnny English Reborn 2011 GOPISAHI

Video
Format                         : AVC
Format/Info                    : Advanced Video Codec
Codec ID                       : V_MPEG4/ISO/AVC
Duration                       : 1 h 41 min
Bit rate                       : 857 kb/s
Width                          : 1 280 pixels
Height                         : 528 pixels
Display aspect ratio           : 2.40:1
Frame rate mode                : Constant
Frame rate                     : 23.976 (24000/1001) FPS
Color space                    : YUV
Chroma subsampling             : 4:2:0
Bit depth                      : 8 bits
Scan type                      : Progressive
Bits/(Pixel*Frame)             : 0.053
Stream size                    : 621 MiB (81%)
Title                          : GOPISAHI
Writing library                : x264 core 120 r2120 0c7dab9

Audio #1
Format                         : AAC
Duration                       : 1 h 41 min
Bit rate                       : 96.0 kb/s
Channel(s)                     : 2 channels
Channel positions              : Front: L R
Sampling rate                  : 48.0 kHz
Frame rate                     : 46.875 FPS (1024 SPF)
Compression mode               : Lossy
Stream size                    : 69.6 MiB (9%)
Title                          : GOPISAHI
Language                       : Hindi

Audio #2
Format                         : AAC
Format/Info                    : Advanced Audio Codec
Duration                       : 1 h 41 min
Bit rate                       : 96.0 kb/s
Channel(s)                     : 2 channels
Channel positions              : Front: L R
Sampling rate                  : 48.0 kHz
Frame rate                     : 46.875 FPS (1024 SPF)
Compression mode               : Lossy
Stream size                    : 69.6 MiB (9%)
Title                          : GOPISAHI
Language                       : English

Text
Language                       : English



TORRENT

 https://archive.org/download/JohnnyEnglishReborn2011X264720pEsubBluRayDualAudioEnglishHindiGOPISAHI/Johnny%20English%20Reborn%202011%20x264%20720p%20Esub%20BluRay%20Dual%20Audio%20English%20Hindi%20GOPISAHI.mkv

https://uploadfiles.pw/a5deaae50e10915a

http://www.mediafire.com/file/wkm03de2zbweeo9/J_E_R_2011.zip/file

https://megaup.net/i1eu/Johnny_English_Reborn_2011_x264_720p_Esub_BluRay_Dual_Audio_English_Hindi_GOPISAHI.mkv

https://my.pcloud.com/publink/show?code=XZaL117ZWE3YkWcnDfbAfwY4Gxqc0hAc1TQV

http://1upload.pw/Download.php?url=bk1XYXNvdGZxczBLeDVGK050REtxQkRuNm1uYkpFaHpvMVBuWGNGeDZ3YjIwL3JJUll6OG9vTHZ3bmc3cVQ5Vw==

https://linksclub.biz/drive/download.php?id=5dddb11dbb89262a6902

https://linkstaker.bid/drive/download.php?id=3f2f5ab848a4b3d16978



 Johnny English Reborn
(2011) on IMDb

Post a Comment

0 Comments