Jurassic World Fallen Kingdom 2018 x264 720p Esub HD Dual Audio English Hindi CAM AD GOPISAHI


Format                         : Matroska
Format version                 : Version 4 / Version 2
File size                      : 821 MiB
Duration                       : 2 h 8 min
Overall bit rate               : 895 kb/s
Movie name                     : Jurassic World Fallen Kingdom 2018 GOPISAHI

Video
Format                         : AVC
Format/Info                    : Advanced Video Codec
Format profile                 : [email protected]
Codec ID                       : V_MPEG4/ISO/AVC
Duration                       : 2 h 8 min
Bit rate                       : 699 kb/s
Width                          : 1 280 pixels
Height                         : 534 pixels
Display aspect ratio           : 2.40:1
Frame rate mode                : Constant
Frame rate                     : 23.976 (24000/1001) FPS
Color space                    : YUV
Chroma subsampling             : 4:2:0
Bit depth                      : 8 bits
Scan type                      : Progressive
Bits/(Pixel*Frame)             : 0.043
Stream size                    : 641 MiB (78%)
Title                          : GOPISAHI
Writing library                : x264 core 155 r2901 7d0ff22

Audio #1
Format                         : AAC
Format/Info                    : Advanced Audio Codec
Duration                       : 2 h 8 min
Bit rate                       : 96.0 kb/s
Channel(s)                     : 2 channels
Channel positions              : Front: L R
Sampling rate                  : 48.0 kHz
Frame rate                     : 46.875 FPS (1024 SPF)
Compression mode               : Lossy
Delay relative to video        : -21 ms
Stream size                    : 88.5 MiB (11%)
Title                          : GOPISAHI
Language                       : Hindi

Audio #2
Format                         : AAC
Format/Info                    : Advanced Audio Codec
Duration                       : 2 h 8 min
Bit rate                       : 96.0 kb/s
Channel(s)                     : 2 channels
Channel positions              : Front: L R
Sampling rate                  : 48.0 kHz
Frame rate                     : 46.875 FPS (1024 SPF)
Compression mode               : Lossy
Delay relative to video        : -21 ms
Stream size                    : 88.5 MiB (11%)
Title                          : GOPISAHI
Language                       : English

Text
Language                       : English



TORRENT



MAGNET

http://1upload.pw/Download.php?url=U0dUdzEvc2RnY1oxSmxoTXZ2b0g3VnJTalVpazh4SjRIbWJKbWZoL2I0UWZ0SGlGbmd4SDRKSzV5YXlDVWN1bA==

https://linkstaker.bid/drive/download.php?id=8d8682b4007018716b2c

https://linksclub.biz/drive/download.php?id=0492dcd74ae644da7b3b

https://uploadfiles.pw/ee722419f4275b2b

http://www.mediafire.com/file/a95ovglxjmyn8g5/J_W_F_K_2018_.zip/file

https://openload.co/f/WNJZJbkG4oM/Jurassic%2520World%2520Fallen%2520Kingdom%25202018%2520x264%2520720p%2520Esub%2520HD%2520Dual%2520Audio%2520English%2520Hindi%2520CAM%2520AD%2520GOPISAHI.mkv.mp4

https://www.oboom.com/VG548ND8

https://uptobox.com/4udobe57z5xl

https://bdupload.info/nyv8kw37dt6f

 http://www.indishare.me/8uokdjjxpzhy

http://www.filefactory.com/file/3a4qak26rum1/

https://megaup.net/5l14/Jurassic_World_Fallen_Kingdom_2018_x264_720p_Esub_HD_Dual_Audio_English_Hindi_CAM_AD_GOPISAHI.mkv

 Jurassic World: Fallen Kingdom
(2018) on IMDb

Post a Comment

0 Comments