Khido Khundi 2018 x264 720p HD Punjabi GOPISAHI


Format                         : Matroska
Format version                 : Version 4 / Version 2
File size                      : 752 MiB
Duration                       : 2 h 30 min
Overall bit rate               : 698 kb/s
Movie name                     : Khido Khundi 2018 GOPISAHI

Video
Format                         : AVC
Format/Info                    : Advanced Video Codec
Codec ID                       : V_MPEG4/ISO/AVC
Duration                       : 2 h 30 min
Bit rate                       : 599 kb/s
Width                          : 1 280 pixels
Height                         : 536 pixels
Display aspect ratio           : 2.40:1
Original display aspect ratio  : 2.40:1
Frame rate mode                : Constant
Frame rate                     : 23.976 (24000/1001) FPS
Color space                    : YUV
Chroma subsampling             : 4:2:0
Bit depth                      : 8 bits
Scan type                      : Progressive
Bits/(Pixel*Frame)             : 0.036
Stream size                    : 645 MiB (86%)
Title                          : GOPISAHI
Writing library                : x264 core 155 r2901 7d0ff22

Audio
Format                         : AAC
Duration                       : 2 h 30 min
Bit rate                       : 96.0 kb/s
Channel(s)                     : 2 channels
Channel positions              : Front: L R
Sampling rate                  : 48.0 kHz
Frame rate                     : 46.875 FPS (1024 SPF)
Compression mode               : Lossy
Delay relative to video        : -21 ms
Stream size                    : 104 MiB (14%)
Title                          : GOPISAHI
Language                       : Panjabi



TORRENT

MAGNET

http://1upload.pw/Download.php?url=ZnZ3K1NudU5RMTB4d2dOMTZQSVJuUGdVNVNKT2tXdmQ2V2FIZ0QxeUhYUG0rQXVYUk9WSks5UUtmY0R2KzMzWg==

https://linkstaker.bid/drive/download.php?id=23663b5d1b96a0626cad

https://linksclub.biz/drive/download.php?id=f49fd169dd716a50cfc4

https://uploadfiles.pw/14db70880dcff5b4

https://www.oboom.com/5HT27ZXQ

https://megaup.net/9z9V/Khido_Khundi_2018_x264_720p_HD_Punjabi_GOPISAHI.mkv

http://www.indishare.me/3fcnpj6llhj2

https://bdupload.info/mth2tiuqnozb

https://uptobox.com/77mig32i6j5f

http://www.filefactory.com/file/637k9dos0817/

https://openload.co/f/-VnhO1WTzGI/Khido_Khundi_2018_x264_720p_HD_Punjabi_GOPISAHI.mkv.mp4


 Khido Khundi
(2018) on IMDb

Post a Comment

0 Comments