Search

Kung Fu Panda 2 2011 x264 720p Esub BluRay Dual Audio English Hindi GOPISAHI


Format                         : Matroska
Format version                 : Version 4 / Version 2
File size                      : 700 MiB
Duration                       : 1 h 30 min
Overall bit rate               : 1 082 kb/s
Movie name                     : Kung Fu Panda 2 2011 GOPISAHI

Video
Format                         : AVC
Format/Info                    : Advanced Video Codec
Format profile                 : [email protected]
Codec ID                       : V_MPEG4/ISO/AVC
Duration                       : 1 h 30 min
Bit rate                       : 887 kb/s
Width                          : 1 280 pixels
Height                         : 544 pixels
Display aspect ratio           : 2.35:1
Frame rate mode                : Constant
Frame rate                     : 23.976 (24000/1001) FPS
Color space                    : YUV
Chroma subsampling             : 4:2:0
Bit depth                      : 8 bits
Scan type                      : Progressive
Bits/(Pixel*Frame)             : 0.053
Stream size                    : 573 MiB (82%)
Title                          : GOPISAHI
Writing library                : x264 core 116 r2074 2641b9e

Audio #1
Format                         : AAC
Format/Info                    : Advanced Audio Codec
Duration                       : 1 h 30 min
Bit rate                       : 96.0 kb/s
Channel(s)                     : 2 channels
Channel positions              : Front: L R
Sampling rate                  : 48.0 kHz
Frame rate                     : 46.875 FPS (1024 SPF)
Compression mode               : Lossy
Stream size                    : 62.2 MiB (9%)
Title                          : GOPISAHI
Language                       : Hindi

Audio #2
Format                         : AAC
Format/Info                    : Advanced Audio Codec
Duration                       : 1 h 30 min
Bit rate                       : 96.0 kb/s
Channel(s)                     : 2 channels
Channel positions              : Front: L R
Sampling rate                  : 48.0 kHz
Frame rate                     : 46.875 FPS (1024 SPF)
Compression mode               : Lossy
Stream size                    : 62.2 MiB (9%)
Title                          : GOPISAHI
Language                       : English

Text
Language                       : English



TORRENT

MAGNET

http://1upload.pw/Download.php?url=S1dmN0thdUVJci92SmN2bUJkanEwZFI3Wi9rSTVqL0V1SVZ1d3kwWE9ZTUhzMm9wbERjSlMvREpQeWhWcW9EcA==

https://linkstaker.bid/drive/download.php?id=eefa48dee6bb853e9c80

https://linksclub.biz/drive/download.php?id=96a7084f2ff226549a9d

https://my.pcloud.com/publink/show?code=XZBb217ZqTGg9YphCfp9anxq6irJC5Dc9ywy

http://www.mediafire.com/file/v7nkwzbb0g32tv8/K_F_P_2_2011_.zip/file

https://megaup.net/dOIO/Kung_Fu_Panda_2_2011_x264_720p_Esub_BluRay_Dual_Audio_English_Hindi_GOPISAHI.mkv

https://openload.co/f/s0lmMIUXIuY/Kung%2520Fu%2520Panda%25202%25202011%2520x264%2520720p%2520Esub%2520BluRay%2520Dual%2520Audio%2520English%2520Hindi%2520GOPISAHI.mkv.mp4

http://www.filefactory.com/file/74bhy7acwokx/

https://uploadfiles.pw/f039dc4cf30e1ec7

http://www.indishare.me/nmoofvbxnllw

https://uptobox.com/bkl7m6m5y20p

https://bdupload.info/d7l7jxj09c54

 Kung Fu Panda 2
(2011) on IMDb

Post a Comment

1 Comments

  1. http://www.telugupalaka.com/flood-uppena-telugu-dubbed-2007-720p-bdrip-multi-audio/

    ReplyDelete