Search

Manmarziyaan 2018 PRE HINDI GOPISAHI


Format version                 : Version 4
File size                      : 387 MiB
Duration                       : 2 h 28 min
Overall bit rate               : 365 kb/s

Video
ID                             : 1
Format                         : AVC
Format/Info                    : Advanced Video Codec
Format profile                 : [email protected]
Format settings                : CABAC / 5 Ref Frames
Format settings, CABAC         : Yes
Format settings, ReFrames      : 5 frames
Codec ID                       : V_MPEG4/ISO/AVC
Duration                       : 2 h 28 min
Bit rate                       : 299 kb/s
Width                          : 640 pixels
Height                         : 246 pixels
Display aspect ratio           : 2.602
Frame rate mode                : Constant
Frame rate                     : 25.000 FPS
Color space                    : YUV
Chroma subsampling             : 4:2:0
Bit depth                      : 8 bits
Scan type                      : Progressive
Bits/(Pixel*Frame)             : 0.076
Stream size                    : 317 MiB (82%)
Writing library                : x264 core 155 r2901 7d0ff22

Audio
ID                             : 2
Format                         : AAC LC
Format/Info                    : Advanced Audio Codec Low Complexity
Codec ID                       : A_AAC-2
Duration                       : 2 h 28 min
Bit rate                       : 64.2 kb/s
Channel(s)                     : 2 channels
Channel layout                 : L R
Sampling rate                  : 48.0 kHz
Frame rate                     : 46.875 FPS (1024 SPF)
Compression mode               : Lossy
Delay relative to video        : -21 ms
Stream size                    : 68.1 MiB (18%)
Language                       : Hindi




https://uptobox.com/oqr11e1l6fia

https://uploadfiles.pw/0f42627cdafc29cc

https://megaup.net/i1p0/Manmarziyaan_2018_PRE_HINDI_GOPISAHI.mkv

https://www.filefactory.com/file/5lah8piwlomd/Manmarziyaan%202018%20PRE%20HINDI%20GOPISAHI.mkv

https://www.oboom.com/7UGVF86O

https://openload.co/f/MSy7gT1qncE/Manmarziyaan_2018_PRE_HINDI_GOPISAHI.mkv.mp4

Post a Comment

2 Comments

  1. use pot player for screenshots
    check......

    https://i.postimg.cc/gJzrxgTX/Untitled4.jpg

    ReplyDelete
  2. https://i.postimg.cc/DztBFbjM/Screen_Gif3.gif

    ReplyDelete