Search

Master Of Death 1978 x264 720p Esub HD Dual Audio German Hindi GOPISAHI


Format                         : Matroska
Format version                 : Version 4 / Version 2
File size                      : 516 MiB
Duration                       : 1 h 43 min
Overall bit rate               : 694 kb/s
Movie name                     : Master Of Death 1978 GOPISAHI

Video
Format                         : AVC
Format/Info                    : Advanced Video Codec
Codec ID                       : V_MPEG4/ISO/AVC
Duration                       : 1 h 43 min
Bit rate                       : 499 kb/s
Width                          : 1 280 pixels
Height                         : 536 pixels
Display aspect ratio           : 2.40:1
Frame rate mode                : Constant
Frame rate                     : 23.976 (24000/1001) FPS
Color space                    : YUV
Chroma subsampling             : 4:2:0
Bit depth                      : 8 bits
Scan type                      : Progressive
Bits/(Pixel*Frame)             : 0.030
Stream size                    : 371 MiB (72%)
Title                          : GOPISAHI
Writing library                : x264 core 155 r2901 7d0ff22

Audio #1
Format                         : AAC
Format/Info                    : Advanced Audio Codec
Duration                       : 1 h 43 min
Bit rate                       : 96.0 kb/s
Channel(s)                     : 2 channels
Channel positions              : Front: L R
Sampling rate                  : 48.0 kHz
Frame rate                     : 46.875 FPS (1024 SPF)
Compression mode               : Lossy
Delay relative to video        : -21 ms
Stream size                    : 71.4 MiB (14%)
Title                          : GOPISAHI
Language                       : Hindi

Audio #2
Format                         : AAC
Format/Info                    : Advanced Audio Codec
Duration                       : 1 h 43 min
Bit rate                       : 96.0 kb/s
Channel(s)                     : 2 channels
Channel positions              : Front: L R
Sampling rate                  : 48.0 kHz
Frame rate                     : 46.875 FPS (1024 SPF)
Compression mode               : Lossy
Delay relative to video        : -21 ms
Stream size                    : 71.2 MiB (14%)
Title                          : GOPISAHI
Language                       : German

Text
Language                       : English

Menu
00:00:00.000                   : en:00:00:00.000
00:07:04.424                   : en:00:07:04.424
00:16:43.169                   : en:00:16:43.169
00:25:28.902                   : en:00:25:28.902
00:30:34.124                   : en:00:30:34.124
00:40:02.984                   : en:00:40:02.984
00:50:37.618                   : en:00:50:37.618
00:57:53.011                   : en:00:57:53.011
01:05:29.884                   : en:01:05:29.884
01:14:29.465                   : en:01:14:29.465
01:23:09.818                   : en:01:23:09.818
01:34:10.603                   : en:01:34:10.562









Post a Comment

0 Comments