Search

Samson And Delilah 1949 x264 720p BluRay Dual Audio English Hindi GOPISAHI

Format                         : Matroska
Format version                 : Version 4 / Version 2
File size                      : 856 MiB
Duration                       : 2 h 13 min
Overall bit rate               : 894 kb/s
Movie name                     : Samson And Delilah 1949 GOPISAHI

Video
Format                         : AVC
Format/Info                    : Advanced Video Codec
Codec ID                       : V_MPEG4/ISO/AVC
Duration                       : 2 h 13 min
Bit rate                       : 699 kb/s
Width                          : 1 280 pixels
Height                         : 534 pixels
Display aspect ratio           : 2.40:1
Frame rate mode                : Constant
Frame rate                     : 23.976 (24000/1001) FPS
Color space                    : YUV
Chroma subsampling             : 4:2:0
Bit depth                      : 8 bits
Scan type                      : Progressive
Bits/(Pixel*Frame)             : 0.043
Stream size                    : 669 MiB (78%)
Title                          : GOPISAHI
Writing library                : x264 core 155 r2901 7d0ff22

Audio #1
Format                         : AAC
Duration                       : 2 h 13 min
Bit rate                       : 96.0 kb/s
Channel(s)                     : 2 channels
Channel positions              : Front: L R
Sampling rate                  : 48.0 kHz
Frame rate                     : 46.875 FPS (1024 SPF)
Compression mode               : Lossy
Delay relative to video        : -21 ms
Stream size                    : 92.3 MiB (11%)
Title                          : GOPISAHI
Language                       : Hindi

Audio #2
Format                         : AAC
Format/Info                    : Advanced Audio Codec
Duration                       : 2 h 13 min
Bit rate                       : 96.0 kb/s
Channel(s)                     : 2 channels
Channel positions              : Front: L R
Sampling rate                  : 48.0 kHz
Frame rate                     : 46.875 FPS (1024 SPF)
Compression mode               : Lossy
Delay relative to video        : -21 ms
Stream size                    : 92.1 MiB (11%)
Title                          : GOPISAHI
Language                       : English

Menu
00:00:00.000                   : en:Chapter 1
00:05:54.396                   : en:Chapter 2
00:10:41.724                   : en:Chapter 3
00:15:13.079                   : en:Chapter 4
00:22:09.620                   : en:Chapter 5
00:30:18.108                   : en:Chapter 6
00:37:39.799                   : en:Chapter 7
00:46:43.467                   : en:Chapter 8
00:53:55.274                   : en:Chapter 9
00:59:19.514                   : en:Chapter 10
01:06:13.511                   : en:Chapter 11
01:15:50.129                   : en:Chapter 12
01:21:30.219                   : en:Chapter 13
01:26:58.714                   : en:Chapter 14
01:33:23.181                   : en:Chapter 15
01:38:31.572                   : en:Chapter 16
01:45:48.843                   : en:Chapter 17
01:50:43.595                   : en:Chapter 18
01:54:14.014                   : en:Chapter 19
01:59:26.743                   : en:Chapter 20
02:05:21.264                   : en:Chapter 21
02:11:30.925                   : en:Chapter 22










Post a Comment

0 Comments