Search

Sector 7 2011 x264 720p Esub BluRay Dual Audio Kor Hindi GOPISAHI


Format                         : Matroska
Format version                 : Version 4 / Version 2
File size                      : 939 MiB
Duration                       : 1 h 41 min
Overall bit rate               : 1 298 kb/s
Movie name                     : Sector 7 2011 GOPISAHI

Video
Format                         : AVC
Format/Info                    : Advanced Video Codec
Codec ID                       : V_MPEG4/ISO/AVC
Duration                       : 1 h 41 min
Bit rate                       : 1 039 kb/s
Width                          : 1 280 pixels
Height                         : 690 pixels
Display aspect ratio           : 1.85:1
Frame rate mode                : Constant
Frame rate                     : 23.976 (24000/1001) FPS
Color space                    : YUV
Chroma subsampling             : 4:2:0
Bit depth                      : 8 bits
Scan type                      : Progressive
Bits/(Pixel*Frame)             : 0.049
Stream size                    : 752 MiB (80%)
Title                          : GOPISAHI
Writing library                : x264 core 138 r2358 9e941d1
Language                       : Korean

Audio #1
Format                         : AAC
Format/Info                    : Advanced Audio Codec
Duration                       : 1 h 41 min
Bit rate                       : 96.0 kb/s
Channel(s)                     : 2 channels
Channel positions              : Front: L R
Sampling rate                  : 48.0 kHz
Frame rate                     : 46.875 FPS (1024 SPF)
Compression mode               : Lossy
Stream size                    : 69.6 MiB (7%)
Title                          : GOPISAHI
Language                       : Hindi

Audio #2
Format                         : AAC
Format/Info                    : Advanced Audio Codec
Duration                       : 1 h 41 min
Bit rate                       : 160 kb/s
Channel(s)                     : 2 channels
Channel positions              : Front: L R
Sampling rate                  : 48.0 kHz
Frame rate                     : 46.875 FPS (1024 SPF)
Compression mode               : Lossy
Delay relative to video        : 52 ms
Stream size                    : 116 MiB (12%)
Title                          : GOPISAHI
Language                       : Korean

Text
Language                       : English



TORRENT

MAGNET

http://www.mediafire.com/file/87uyrrwdp71djqb/Se_7_2011_.zip/file

https://www.oboom.com/2BWIGA7I

https://my.pcloud.com/publink/show?code=XZJEj17ZY14Ui2UA2sQLIR070mvPuFv0wmpX

http://1upload.pw/Download.php?url=YnltOHZ1N1lGNnN4TmZlSWZDTllCV0pTdnZ2NzBDRkdOMlJjRC85SkQ4U1J2UjJZdkhCMmw2MjVneXRCRk5zRg==

https://linkstaker.bid/drive/download.php?id=60a24ac9ab61884d79c2

http://www.indishare.me/eti0l2bvff8w

https://uptobox.com/0s5lc3f52hrn

https://bdupload.info/8a6yq9orhih6

https://openload.co/f/Gp6JMgCBQPo/Sector%25207%25202011%2520x264%2520720p%2520Esub%2520BluRay%2520Dual%2520Audio%2520Kor%2520Hindi%2520GOPISAHI.mkv.mp4

https://megaup.net/mcxJ/Sector_7_2011_x264_720p_Esub_BluRay_Dual_Audio_Kor_Hindi_GOPISAHI.mkv

https://uploadfiles.pw/eb884270558c74ce

http://www.filefactory.com/file/695jhdd7r73z/

 Sector 7
(2011) on IMDb

Post a Comment

0 Comments