Search

Sicario Day Of The Soldado 2018 x264 1080p Esub English GOPISAHI


Format                         : Matroska
Format version                 : Version 4 / Version 2
File size                      : 866 MiB
Duration                       : 2 h 2 min
Overall bit rate               : 989 kb/s
Movie name                     : Sicario Day Of The Soldado 2018 GOPISAHI

Video
Format                         : AVC
Format/Info                    : Advanced Video Codec
Codec ID                       : V_MPEG4/ISO/AVC
Duration                       : 2 h 2 min
Bit rate                       : 899 kb/s
Width                          : 1 920 pixels
Height                         : 784 pixels
Display aspect ratio           : 2.40:1
Frame rate mode                : Constant
Frame rate                     : 23.976 (24000/1001) FPS
Color space                    : YUV
Chroma subsampling             : 4:2:0
Bit depth                      : 8 bits
Scan type                      : Progressive
Bits/(Pixel*Frame)             : 0.025
Stream size                    : 786 MiB (91%)
Title                          : GOPISAHI
Writing library                : x264 core 155 r2901 7d0ff22

Audio
Format                         : AAC
Duration                       : 2 h 2 min
Bit rate                       : 88.3 kb/s
Channel(s)                     : 6 channels
Channel positions              : Front: L C R, Side: L R, LFE
Sampling rate                  : 48.0 kHz
Frame rate                     : 46.875 FPS (1024 SPF)
Compression mode               : Lossy
Stream size                    : 77.3 MiB (9%)
Title                          : GOPISAHI
Language                       : English

Text
Language                       : English




TORRENT

MAGNET

http://www.mediafire.com/file/6yg6feg6e8zod7a/S_D_Of_T_S2018_x.zip/file

https://my.pcloud.com/publink/show?code=XZAaj17ZHEq50q7cFPRCV2uYmtw0KSNDxbVX

http://1upload.pw/Download.php?url=YWFMTXJYdjkxMHlDYTFBSVVFZVdqaVR3RGRXb3VOQ3cwTXRJTHNpL2xvb0E3cXRTekJmZXYwNktjcWJINFc4Vw==

https://linksclub.biz/drive/download.php?id=1dbbff592ec0e17a5e3c

https://linkstaker.bid/drive/download.php?id=b96592cfc95e20e04eec

https://www.oboom.com/KZGNKRID

http://www.indishare.me/eocd69f6gpef

https://openload.co/f/VBUZj1uApeY/Sicario%2520Day%2520Of%2520The%2520Soldado%25202018%2520x264%2520720p%2520Esub%2520BluRay%2520English%2520GOPISAHI.mkv

https://bdupload.info/08ktfcvpm665

https://uptobox.com/doudrk4sb82w

https://megaup.net/i0ow/Sicario_Day_Of_The_Soldado_2018_x264_720p_Esub_BluRay_English_GOPISAHI.mkv

https://uploadfiles.pw/65b01d82ffd2133e

https://cloudvideo.tv/dl?op=download_orig&id=qaikixpktm3q&mode=n&hash=76700-80-211-1536838923-f8b6acdf10bef923e9fedb355b20a008


 Sicario: Day of the Soldado
(2018) on IMDb

Post a Comment

0 Comments