Search

Solo A Star Wars Story 2018 x264 1080p Esub BluRay English GOPISAHI 960 MB


Format                         : Matroska
Format version                 : Version 4 / Version 2
File size                      : 961 MiB
Duration                       : 2 h 14 min
Overall bit rate               : 997 kb/s
Movie name                     : Solo A Star Wars Story 2018 GOPISAHI

Video
Format                         : AVC
Format/Info                    : Advanced Video Codec
Codec ID                       : V_MPEG4/ISO/AVC
Duration                       : 2 h 14 min
Bit rate                       : 899 kb/s
Width                          : 1 920 pixels
Height                         : 800 pixels
Display aspect ratio           : 2.40:1
Frame rate mode                : Constant
Frame rate                     : 23.976 (24000/1001) FPS
Color space                    : YUV
Chroma subsampling             : 4:2:0
Bit depth                      : 8 bits
Scan type                      : Progressive
Bits/(Pixel*Frame)             : 0.024
Stream size                    : 866 MiB (90%)
Title                          : GOPISAHI
Writing library                : x264 core 155 r2901 7d0ff22

Audio
Format                         : AAC
Duration                       : 2 h 14 min
Bit rate                       : 96.0 kb/s
Channel(s)                     : 2 channels
Channel positions              : Front: L R
Sampling rate                  : 48.0 kHz
Frame rate                     : 46.875 FPS (1024 SPF)
Compression mode               : Lossy
Delay relative to video        : -21 ms
Stream size                    : 92.5 MiB (10%)
Title                          : GOPISAHI
Language                       : English

Text
Language                       : English



TORRENT

MAGNET

http://www.mediafire.com/file/yb99hws4515s6yb/S_A_S_W_S_2018.zip/file

http://1upload.pw/Download.php?url=UEFsZC84TjZyUFZrWnUvc0FiN2lsNTYzaDVzWERTUzVLZ0psRmc4SHhwdStkTVpBaytVdXNmSzkrZkt2dEM2TA==

https://linksclub.biz/drive/download.php?id=84d3788899edcd59e4bd

https://linkstaker.bid/drive/download.php?id=1c928dfd212d138ec879

https://uptobox.com/2e3n0hfllpyr

http://www.indishare.me/w3gvjsldvg50

https://bdupload.info/lbwuq1lkcqz8

http://www.filefactory.com/file/d1luv7n85l1/

https://www.oboom.com/F7HTR64R

 https://uploadfiles.pw/39579d5f2689bfce

https://megaup.net/5p6v/Solo_A_Star_Wars_Story_2018_x264_1080p_Esub_BluRay_English_GOPISAHI.mkv

https://openload.co/f/nM33eVNPKwE/Solo_A_Star_Wars_Story_2018_x264_1080p_Esub_BluRay_English_GOPISAHI.mkv.mp4

https://cloudvideo.tv/dl?op=download_orig&id=fsp5rfwgahcl&mode=n&hash=75471-80-211-1536719305-24cc86d63e6281468a7ba201c59ebdb6

 Solo: A Star Wars Story
(2018) on IMDb

Post a Comment

0 Comments