The Canterville Ghost 1996 TVRiP Dual Audio Italian Hindi GOPISAHI


Format                         : Matroska
Format version                 : Version 4 / Version 2
File size                      : 308 MiB
Duration                       : 1 h 27 min
Overall bit rate               : 493 kb/s
Movie name                     : The Canterville Ghost 1996 GOPISAHI

Video
Format                         : AVC
Format/Info                    : Advanced Video Codec
Codec ID                       : V_MPEG4/ISO/AVC
Duration                       : 1 h 27 min
Bit rate                       : 299 kb/s
Width                          : 608 pixels
Height                         : 448 pixels
Display aspect ratio           : 4:3
Frame rate mode                : Constant
Frame rate                     : 25.000 FPS
Color space                    : YUV
Chroma subsampling             : 4:2:0
Bit depth                      : 8 bits
Scan type                      : Progressive
Bits/(Pixel*Frame)             : 0.044
Stream size                    : 186 MiB (60%)
Title                          : GOPISAHI
Writing library                : x264 core 155 r2901 7d0ff22

Audio #1
Format                         : AAC
Duration                       : 1 h 27 min
Bit rate                       : 96.0 kb/s
Channel(s)                     : 2 channels
Channel positions              : Front: L R
Sampling rate                  : 48.0 kHz
Frame rate                     : 46.875 FPS (1024 SPF)
Compression mode               : Lossy
Stream size                    : 60.1 MiB (19%)
Title                          : GOPISAHI
Language                       : Hindi

Audio #2
Format                         : AAC
Format/Info                    : Advanced Audio Codec
Duration                       : 1 h 27 min
Bit rate                       : 96.0 kb/s
Channel(s)                     : 2 channels
Channel positions              : Front: L R
Sampling rate                  : 48.0 kHz
Frame rate                     : 46.875 FPS (1024 SPF)
Compression mode               : Lossy
Delay relative to video        : -21 ms
Stream size                    : 60.1 MiB (19%)
Title                          : GOPISAHI
Language                       : Italian



TORRENT

MAGNET

http://1upload.pw/Download.php?url=WFpzUmdDcGczYzhtd1NDUWNiZkFtYXlFNzB2eGpKOVJuUXM0WFEwUnYwYXhXVzB6cnBQazdQdk9qSmZlUHFyOA==

https://linkstaker.bid/drive/download.php?id=f84afcdd17e0334cf1a9

http://www.indishare.me/xu3k02n94hcu

https://uploadfiles.pw/5c87d9c73ec5c2b7

https://www.oboom.com/TUPE26U3

https://uptobox.com/0ww59clil8jn

https://bdupload.info/xoyvya2mydkr

https://megaup.net/mawI/The_Canterville_Ghost_1996_TVRiP_Dual_Audio_Italian_Hindi_GOPISAHI.mkv

http://www.mediafire.com/file/cerl6poib7kr1mj/T_C_G_1996_.zip/file

https://openload.co/f/BS4eufiLx8Y/The%2520Canterville%2520Ghost%25201996%2520TVRiP%2520Dual%2520Audio%2520Italian%2520Hindi%2520GOPISAHI.mkv.mp4



 The Canterville Ghost
(1996) on IMDb


Post a Comment

0 Comments