Search

The Predator 2018 720p HDCAM Dual Audio Hindi English GOPISAHI


Video
Format                         : AVC
Format/Info                    : Advanced Video Codec
Codec ID                       : V_MPEG4/ISO/AVC
Duration                       : 1 h 40 min
Bit rate                       : 886 kb/s
Width                          : 1 280 pixels
Height                         : 528 pixels
Display aspect ratio           : 2.40:1
Frame rate mode                : Constant
Frame rate                     : 29.970 (30000/1001) FPS
Color space                    : YUV
Chroma subsampling             : 4:2:0
Bit depth                      : 8 bits
Scan type                      : Progressive
Bits/(Pixel*Frame)             : 0.044
Stream size                    : 638 MiB (81%)
Title                          : GOPISAHI
Writing library                : x264 core 155 r2901 7d0ff22

Audio #1
Format                         : MPEG Audio
Codec ID                       : A_MPEG/L3
Codec ID/Hint                  : MP3
Duration                       : 1 h 40 min
Bit rate mode                  : Variable
Bit rate                       : 106 kb/s
Nominal bit rate               : 128 kb/s
Channel(s)                     : 2 channels
Sampling rate                  : 48.0 kHz
Frame rate                     : 41.667 FPS (1152 SPF)
Compression mode               : Lossy
Stream size                    : 76.2 MiB (10%)
Title                          : GOPISAHI
Writing library                : LAME3.99r
Encoding settings              : -m j -V 4 -q 3 -lowpass 17 --abr 128
Language                       : Hindi

Audio #2
Format                         : MPEG Audio
Format version                 : Version 1
Codec ID/Hint                  : MP3
Duration                       : 1 h 40 min
Bit rate mode                  : Variable
Bit rate                       : 96.0 kb/s
Channel(s)                     : 2 channels
Sampling rate                  : 48.0 kHz
Frame rate                     : 41.667 FPS (1152 SPF)
Compression mode               : Lossy
Stream size                    : 72.2 MiB (9%)
Title                          : GOPISAHI
Writing library                : LAME3.99r
Encoding settings              : -m j -V 4 -q 3 -lowpass 15.1 --abr 96
Language                       : English






Post a Comment

0 Comments