Search

Tom and Jerry in Shiver Me Whiskers 2006 x264 720p Esub BluRay Dual Audio English Hindi GOPISAHI


Format                         : Matroska
Format version                 : Version 4 / Version 2
File size                      : 457 MiB
Duration                       : 1 h 11 min
Overall bit rate               : 893 kb/s
Movie name                     : Tom and Jerry in Shiver Me Whiskers 2006 GOPISAHI

Video
Format                         : AVC
Format/Info                    : Advanced Video Codec
Codec ID                       : V_MPEG4/ISO/AVC
Duration                       : 1 h 11 min
Bit rate                       : 699 kb/s
Width                          : 1 280 pixels
Height                         : 720 pixels
Display aspect ratio           : 16:9
Frame rate mode                : Constant
Frame rate                     : 23.976 (24000/1001) FPS
Color space                    : YUV
Chroma subsampling             : 4:2:0
Bit depth                      : 8 bits
Scan type                      : Progressive
Bits/(Pixel*Frame)             : 0.032
Stream size                    : 357 MiB (78%)
Title                          : GOPISAHI
Writing library                : x264 core 155 r2901 7d0ff22

Audio #1
Format                         : AAC
Duration                       : 1 h 11 min
Bit rate                       : 96.0 kb/s
Channel(s)                     : 2 channels
Channel positions              : Front: L R
Sampling rate                  : 48.0 kHz
Frame rate                     : 46.875 FPS (1024 SPF)
Compression mode               : Lossy
Delay relative to video        : -146 ms
Stream size                    : 49.1 MiB (11%)
Title                          : GOPISAHI
Language                       : Hindi

Audio #2
Format                         : AAC
Format/Info                    : Advanced Audio Codec
Duration                       : 1 h 11 min
Bit rate                       : 96.0 kb/s
Channel(s)                     : 2 channels
Channel positions              : Front: L R
Sampling rate                  : 48.0 kHz
Frame rate                     : 46.875 FPS (1024 SPF)
Compression mode               : Lossy
Delay relative to video        : -146 ms
Stream size                    : 49.1 MiB (11%)
Title                          : GOPISAHI
Language                       : English

Text
Language                       : English


TORRENT

MAGNET

https://my.pcloud.com/publink/show?code=XZbsb17ZKbRSE0KGs1bIpnicvDSbIByGVJ4X

 http://www.mediafire.com/file/kryk2s25lpzajvi/T_d_J_i_S_M_W_2006_x264_.zip/file

http://1upload.pw/Download.php?url=Z29YU0VuMDJWaVpvL0FMSE1sUk56cGR2WlhHaGJoUGlNc1EwaUIvdGpiVDdmc1F5MlF3blY2ZmRZNWY1QjBVWA==

https://linksclub.biz/drive/download.php?id=2a81f68e4460b9ed2cf3

https://linkstaker.bid/drive/download.php?id=92ad50e39edb5d5e3ef3

https://openload.co/f/eAqc9oIq4d4/Tom%2520and%2520Jerry%2520in%2520Shiver%2520Me%2520Whiskers%25202006%2520x264%2520720p%2520Esub%2520BluRay%2520Dual%2520Audio%2520English%2520Hindi%2520GOPISAHI.mkv

https://bdupload.info/59oiujd6ecws

https://uptobox.com/wk0qxzphn86w

https://megaup.net/mclK/Tom_and_Jerry_in_Shiver_Me_Whiskers_2006_x264_720p_Esub_BluRay_Dual_Audio_English_Hindi_GOPISAHI.mkv

http://www.filefactory.com/file/2cczvqen9dnv/

http://www.indishare.me/vk6d200vnexn

https://www.oboom.com/SP2WHNUB

https://uploadfiles.pw/ed995c71e9b3b161

 Tom and Jerry in Shiver Me Whiskers
(2006) on IMDb


Post a Comment

0 Comments