Tom and Jerry The Movie 1992 x264 DVD English Hindi Italian Tamil GOPISAHI


Format                         : Matroska
Format version                 : Version 4 / Version 2
File size                      : 473 MiB
Duration                       : 1 h 23 min
Overall bit rate               : 790 kb/s
Movie name                     : Tom and Jerry: The Movie 1992 GOPISAHI

Video
Format                         : AVC
Format/Info                    : Advanced Video Codec
Codec ID                       : V_MPEG4/ISO/AVC
Duration                       : 1 h 23 min
Bit rate                       : 499 kb/s
Width                          : 928 pixels
Height                         : 720 pixels
Display aspect ratio           : 1.289
Frame rate mode                : Constant
Frame rate                     : 23.976 (24000/1001) FPS
Color space                    : YUV
Chroma subsampling             : 4:2:0
Bit depth                      : 8 bits
Scan type                      : Progressive
Bits/(Pixel*Frame)             : 0.031
Stream size                    : 298 MiB (63%)
Title                          : GOPISAHI
Writing library                : x264 core 155 r2901 7d0ff22

Audio #1
Format                         : AAC
Format/Info                    : Advanced Audio Codec
Duration                       : 1 h 22 min
Bit rate                       : 96.0 kb/s
Channel(s)                     : 2 channels
Channel positions              : Front: L R
Sampling rate                  : 48.0 kHz
Frame rate                     : 46.875 FPS (1024 SPF)
Compression mode               : Lossy
Delay relative to video        : 6 s 21 ms
Stream size                    : 57.0 MiB (12%)
Title                          : GOPISAHI
Language                       : Hindi

Audio #2
Format                         : AAC
Duration                       : 1 h 23 min
Bit rate                       : 64.3 kb/s
Channel(s)                     : 2 channels
Channel positions              : Front: L R
Sampling rate                  : 48.0 kHz
Frame rate                     : 46.875 FPS (1024 SPF)
Compression mode               : Lossy
Stream size                    : 38.4 MiB (8%)
Title                          : GOPISAHI
Language                       : English

Audio #3
Format                         : AAC
Format/Info                    : Advanced Audio Codec
Duration                       : 1 h 23 min
Bit rate                       : 64.1 kb/s
Channel(s)                     : 2 channels
Channel positions              : Front: L R
Sampling rate                  : 48.0 kHz
Frame rate                     : 46.875 FPS (1024 SPF)
Compression mode               : Lossy
Stream size                    : 38.4 MiB (8%)
Title                          : GOPISAHI
Language                       : Italian

Audio #4
Format                         : AAC
Format/Info                    : Advanced Audio Codec
Duration                       : 1 h 22 min
Bit rate                       : 64.2 kb/s
Channel(s)                     : 2 channels
Channel positions              : Front: L R
Sampling rate                  : 48.0 kHz
Frame rate                     : 46.875 FPS (1024 SPF)
Compression mode               : Lossy
Delay relative to video        : 6 s 21 ms
Stream size                    : 38.0 MiB (8%)
Title                          : GOPISAHI
Language                       : Tamil



TORRENT

MAGNET

http://1upload.pw/Download.php?url=ZDFwL1ZXWE9WYUZ2NXVyZHhxK01HS1dxVGpJWHE2eVFpSUpZYlNCTnVBamFJZVNoMHhCK3JJUkpiK21hYWExVg==

https://linksclub.biz/drive/download.php?id=9966077795f1644e316e

https://linkstaker.bid/drive/download.php?id=12fa2254a241aebea69c 

http://www.indishare.me/kurw25cwva5r

https://bdupload.info/mktx7n5lt79w

https://uptobox.com/kdb96fgt2ct4

https://megaup.net/9yrP/Tom_and_Jerry_The_Movie_1992_x264_DVD_English_Hindi__Italian_Tamil_GOPISAHI.mkv

https://www.oboom.com/Z9PQGJLN

https://openload.co/f/9_Fp3PVE8P8/Tom%2520and%2520Jerry%2520The%2520Movie%25201992%2520x264%2520DVD%2520English%2520Hindi%2520%2520Italian%2520Tamil%2520GOPISAHI.mkv.mp4

http://www.filefactory.com/file/5dv5slhs25f1/

https://uploadfiles.pw/3b46eda78a41842f


 Tom and Jerry: The Movie
(1992) on IMDb


Post a Comment

2 Comments

  1. Tom and Jerry Robin hood and the merry mouse reReconde with blu-ray
    https://mega.nz/#!qCRBUKSL!NTmVtLV4sVPhf6ztoKTFU4jwl0APsEhFh6lOF9Eqv2w

    ReplyDelete
  2. Collection of Tom and Jerry movies please upgrade to blu-ray version /did / HD rip
    https://deadtoonsindia.com/movie-tom-jerry-rare-movies-hindi-dubbed-download-720p-hd/

    ReplyDelete