Search

Too Big To Fail 2011 x264 720p Esub BluRay Dual Audio English Hindi Italian GOPISAHI


Format                         : Matroska
Format version                 : Version 4 / Version 2
File size                      : 769 MiB
Duration                       : 1 h 38 min
Overall bit rate               : 1 089 kb/s
Movie name                     : Too Big To Fail 2011 GOPISAHI

Video
Format                         : AVC
Format/Info                    : Advanced Video Codec
Codec ID                       : V_MPEG4/ISO/AVC
Duration                       : 1 h 38 min
Bit rate                       : 799 kb/s
Width                          : 1 280 pixels
Height                         : 720 pixels
Display aspect ratio           : 16:9
Frame rate mode                : Constant
Frame rate                     : 23.976 (24000/1001) FPS
Color space                    : YUV
Chroma subsampling             : 4:2:0
Bit depth                      : 8 bits
Scan type                      : Progressive
Bits/(Pixel*Frame)             : 0.036
Stream size                    : 564 MiB (73%)
Title                          : GOPISAHI
Writing library                : x264 core 155 r2901 7d0ff22

Audio #1
Format                         : AAC
Format/Info                    : Advanced Audio Codec
Duration                       : 1 h 36 min
Bit rate                       : 96.0 kb/s
Channel(s)                     : 2 channels
Channel positions              : Front: L R
Sampling rate                  : 48.0 kHz
Frame rate                     : 46.875 FPS (1024 SPF)
Compression mode               : Lossy
Delay relative to video        : 33 ms
Stream size                    : 66.2 MiB (9%)
Title                          : GOPISAHI
Language                       : Hindi

Audio #2
Format                         : AAC
Format/Info                    : Advanced Audio Codec
Duration                       : 1 h 38 min
Bit rate                       : 96.0 kb/s
Channel(s)                     : 2 channels
Channel positions              : Front: L R
Sampling rate                  : 48.0 kHz
Frame rate                     : 46.875 FPS (1024 SPF)
Compression mode               : Lossy
Delay relative to video        : -21 ms
Stream size                    : 68.0 MiB (9%)
Title                          : GOPISAHI
Language                       : English

Audio #3
Format                         : AAC
Duration                       : 1 h 38 min
Bit rate                       : 96.0 kb/s
Channel(s)                     : 2 channels
Channel positions              : Front: L R
Sampling rate                  : 48.0 kHz
Frame rate                     : 46.875 FPS (1024 SPF)
Compression mode               : Lossy
Delay relative to video        : -21 ms
Stream size                    : 67.9 MiB (9%)
Title                          : GOPISAHI
Language                       : Italian

Text
Language                       : English



TORRENT

MAGNET

http://www.mediafire.com/file/qd6lmpkchmb1yev/T_B_T_F_2011_.zip/file

https://my.pcloud.com/publink/show?code=XZIee17ZieBcrUKBqvk8gV3WrifLajc2eyUV

http://1upload.pw/Download.php?url=K0FOTC8zSm1pcWJ0cXVnbXRwaVVBWXdNK3ZEYjZWbjRFVkNZWUkvRTg4TmZmekZKQ2xkTDZoOVl6eVpIei8vNg==

https://linkstaker.bid/drive/download.php?id=d2ae66e254dbaec3e676

https://linksclub.biz/drive/download.php?id=36d743f58d2bd4350231

https://uptobox.com/aq4l7wby5m0m

https://uploadfiles.pw/9d1ed474180d0ead

https://www.oboom.com/MCSXTMES

https://megaup.net/mdyV/Too_Big_To_Fail_2011_x264_720p_Esub_BluRay_Dual_Audio_English_Hindi_Italian_GOPISAHI.mkv

https://openload.co/f/1r5M6iEQC2M/Too_Big_To_Fail_2011_x264_720p_Esub_BluRay_Dual_Audio_English_Hindi_Italian_GOPISAHI.mkv

 Too Big to Fail
(2011) on IMDb

Post a Comment

0 Comments